Welcome Guest ( Log In | Register )

> Releases Upload / Добавление релизов

Добавить релиз тут / Click here to add release
Рекомендованные обменники / Recommended file shares

> Gatecreeper - An Unexpected Reality [ep] (2021), Old School Death Metal
post Jan 12 2021, 16:37:42
Post #1

Правь статус, ####!111
**************
Group: Металариец
Posts: 24,668
Releases: 17474
From: Г.Харьков
On Forums: 8 years 8 months
Thanks: 338324 time(s)
Unknown


(IMG:http://metalarea.org/images/audiocovers/2021_Jan/acov_tid346009_thumb.jpg)

*Artist: Gatecreeper
*Album: An Unexpected Reality [ep]
*Year: 2021
*Genre: Old School Death Metal
*Country: United States (IMG:http://metalarea.org/forum/style_images/flags/United%20States.png)
*Format: mp3@CBR320kbps
*Size: 42MB

Tracklist:
01. Starved 01:03
02. Sick of Being Sober 00:58
03. Rusted Gold 00:56
04. Imposter Syndrome 01:07
05. Amputation 00:30
06. Depraved Not Deprived 01:11
07. Superspreader 00:59
08. Emptiness 11:05
******************************
Total playing time: 17:49



Extended info
Sean Mears Bass (2013-present)
See also: Hellhorse, Languish
Metal Matt Drums (2013-present)
See also: Hellhorse, Noose Rot, ex-Sovereign
Eric Wagner Guitars (2013-present)
See also: ex-Languish, ex-Spirit Adrift
Chase H. Mason Vocals (2013-present)
See also: ex-Slut Sister, ex-Spirit Adrift


Technical info
(IMG:http://metalarea.org/images/spectrogram/2021_Jan/084e2f220b29629103b38cb9a8bad70b.png)
Input File: 08 Emptiness.mp3
Channels : 2
Sample Rate : 44100
Precision : 16-bit
Duration : 00:11:06.11 = 29375319 samples = 49958 CDDA sectors
File Size : 26.6M
Bit Rate : 320k
Sample Encoding: MPEG audio (layer I, II or III)
Comments :
Title=Emptiness
Artist=Gatecreeper
Album=An Unexpected Reality
Tracknumber=08/08
Year=2021-21-20
Discnumber=1/1



Register


Go to the top of the page
  Insert nick Quick quote
+Quote Post
 
Start new topic
Replies (1 - 2)
post Jan 13 2021, 13:16:07
Post #2

Правь статус, ####!111
**************
Group: Металариец
Posts: 48,080
Releases: 763
On Forums: 11 years 7 months
Thanks: 41617 time(s)
Russian Federation


У этих ребят всегда получаются....




отличные обложки для своих релизов. (IMG:style_emoticons/default/dooo.gif)
Go to the top of the page
  Insert nick Quick quote
+Quote Post
post Jan 16 2021, 20:01:47
Post #3

brutalcesar
**************
Group: Металариец
Posts: 18,048
Releases: 67
From: Рязань
On Forums: 12 years 1 week
Thanks: 10022 time(s)
Russian Federation


Шикарно!!



Thanks:
Go to the top of the page
  Insert nick Quick quote
+Quote Post

Reply to this topicStart new topic
1 User(s) are reading this topic (1 Guests and 0 Anonymous Users)
0 Members:

 



- Lo-Fi Version Support form
Copyrights and abuse reports form
Time is now: 25th January 2021 - 05:28:50