Welcome Guest ( Log In | Register )

> Releases Upload / Добавление релизов

Добавить релиз тут / Click here to add release
Рекомендованные обменники / Recommended file shares

> Dirymgar - Existir (2021), Progressive Death/Thrash Metal
post Jan 12 2021, 16:54:09
Post #1

Правь статус, ####!111
**************
Group: Металариец
Posts: 24,668
Releases: 17474
From: Г.Харьков
On Forums: 8 years 8 months
Thanks: 338326 time(s)
Unknown


(IMG:http://metalarea.org/images/audiocovers/2021_Jan/acov_tid346010_thumb.jpg)

*Artist: Dirymgar
*Album: Existir
*Year: 2021
*Genre: Progressive Death/Thrash Metal
*Country: Argentina (IMG:http://metalarea.org/forum/style_images/flags/Argentina.png)
*Format: mp3@CBR320kbps
*Size: 83MB

Tracklist:
1. Genocidio 04:52
2. Perspectivas 05:04
3. Occisión... Pena en Siberia 06:21
4. Portador de maldad 05:38
5. Encélado 02:34 instrumental
6. Último día perfecto 04:02
7. Sudán 04:09
8. Persecución 04:00 instrumental
******************************
Total playing time: 36:40



Extended info
Nahuel Lanza Guitars, Vocals
See also: Virulencia


Technical info
(IMG:http://metalarea.org/images/spectrogram/2021_Jan/90942c2836b3d125d7b8d6799465a29a.png)
Input File: 04. Portador de Maldad.mp3
Channels : 2
Sample Rate : 44100
Precision : 16-bit
Duration : 00:05:36.62 = 14845030 samples = 25246.6 CDDA sectors
File Size : 13.5M
Bit Rate : 320k
Sample Encoding: MPEG audio (layer I, II or III)
Comments :
Title=Portador de Maldad
Artist=Dirymgar
Album=Existir
Tracknumber=04
Year=2021



Register


Go to the top of the page
  Insert nick Quick quote
+Quote Post
 
Start new topic
Replies (1 - 3)
post Jan 13 2021, 10:29:12
Post #2

Правь статус, ####!111
**************
Group: Металариец
Posts: 48,080
Releases: 763
On Forums: 11 years 7 months
Thanks: 41617 time(s)
Russian Federation


Кустарненько звучат сии дуремары...


Thanks:
(1) Andrew,
Go to the top of the page
  Insert nick Quick quote
+Quote Post
post Jan 14 2021, 17:34:19
Post #3

MDM-Thrash Metal
**************
Group: Металариец
Posts: 10,101
Releases: 1132
From: Одесса
On Forums: 13 years 5 months
Thanks: 28062 time(s)
Ukraine


Та да, что запись, что сам материал...
Go to the top of the page
  Insert nick Quick quote
+Quote Post
post Jan 16 2021, 19:57:39
Post #4

brutalcesar
**************
Group: Металариец
Posts: 18,048
Releases: 67
From: Рязань
On Forums: 12 years 1 week
Thanks: 10022 time(s)
Russian Federation


Низкопробный ванмэнбэнд, ага!
Go to the top of the page
  Insert nick Quick quote
+Quote Post

Reply to this topicStart new topic
1 User(s) are reading this topic (1 Guests and 0 Anonymous Users)
0 Members:

 



- Lo-Fi Version Support form
Copyrights and abuse reports form
Time is now: 25th January 2021 - 06:00:53