Welcome Guest ( Log In | Register )

 
Reply to this topicStart new topic
> Shiver - Bones.Spirit.Ashes.Madness [ep] (2014), Death/Groove Metal (D7)
post Jan 12 2021, 17:38:07
Post #1

Маньяк
**********
Group: Металариец
Posts: 1,349
Releases: 481
From: Саранск
On Forums: 9 years 9 months
Thanks: 4438 time(s)
Russian Federation


(IMG:https://metalarea.org/images/audiocovers/2021_Jan/acov_tid346011_thumb.jpg)

*Artist: Shiver
*Album: Bones.Spirit.Ashes.Madness [ep]
*Year: 2014
*Genre: Death/Groove Metal
*Country: Israel (IMG:https://metalarea.org/forum/style_images/flags/Israel.png)
*Format: mp3@CBR128kbps (IMG:https://metalarea.org/images/bit_low.gif)
*Size: 19MB

Tracklist:
1. Serve A Purpose 02:47
2. Collecting Parts 02:21
3. Piece Of Us 03:33
4. Preach 03:31
5. Too Much To Bear 04:08
6. Combined (feat. Tiran Ezra of Ferium) 03:57
******************************
Total playing time: 20:17



Technical info
(IMG:https://metalarea.org/images/spectrogram/2021_Jan/9df35056f70dee59bcc00c49ba427a7a.png)
Input File: 6 - Combined (feat. Tiran Ezra of Ferium).mp3
Channels : 2
Sample Rate : 44100
Precision : 16-bit
Duration : 00:03:58.03 = 10497167 samples = 17852.3 CDDA sectors
File Size : 3.81M
Bit Rate : 128k
Sample Encoding: MPEG audio (layer I, II or III)
Comments :
Title=Combined (feat. Tiran Ezra of Ferium)
Artist=Shiver
Album=Bones.Spirit.Ashes.Madness (EP)
Tracknumber=6
Year=2014
Genre=Metal



Register


Go to the top of the page
  Insert nick Quick quote
+Quote Post

Reply to this topicStart new topic
1 User(s) are reading this topic (1 Guests and 0 Anonymous Users)
0 Members:

 



- Lo-Fi Version Support form
Copyrights and abuse reports form
Time is now: 3rd March 2021 - 00:34:32