Welcome Guest ( Log In | Register )

> Releases Upload / Добавление релизов

Добавить релиз тут / Click here to add release
Рекомендованные обменники / Recommended file shares

> Archaic Thorn - Eradication (2020), Death Metal
post Jan 12 2021, 18:04:29
Post #1

Правь статус, ####!111
**************
Group: Металариец
Posts: 24,579
Releases: 17410
From: Г.Харьков
On Forums: 8 years 8 months
Thanks: 335746 time(s)
Unknown


(IMG:http://metalarea.org/images/audiocovers/2021_Jan/acov_tid346012_thumb.jpg)

*Artist: Archaic Thorn
*Album: Eradication
*Year: 2020
*Genre: Death Metal
*Country: Germany (IMG:http://metalarea.org/forum/style_images/flags/Germany.png)
*Format: mp3@CBR320kbps
*Size: 100MB

Tracklist:
1. Into Endless Black Sky 06:09
2. Thoughtless Eradication 05:47
3. Cleansing Fire 03:25
4. Regression 06:32
5. Deathmarch 06:57
6. Extraterrestrial Blood 05:55
7. Impure Desolation 08:23
******************************
Total playing time: 43:08


Preview 2


Extended info
C.L. Guitars (2010-present)
M.F. Vocals, Bass (2010-present)
T.R. Drums (2011-present)


Technical info
(IMG:http://metalarea.org/images/spectrogram/2021_Jan/3ea532dc08a177b8ce64bedd07b1c598.png)
Input File: 07 Impure Desolation.mp3
Channels : 2
Sample Rate : 44100
Precision : 16-bit
Duration : 00:08:23.77 = 22216389 samples = 37783 CDDA sectors
File Size : 20.3M
Bit Rate : 323k
Sample Encoding: MPEG audio (layer I, II or III)
Comments :
Title=Impure Desolation
Artist=Archaic Thorn
Album=Eradication
Tracknumber=7/7
Year=2020-20-20
Genre=Metal
Discnumber=1/1



Register


Go to the top of the page
  Insert nick Quick quote
+Quote Post
 
Start new topic
Replies (1 - 2)
post Jan 13 2021, 23:03:33
Post #2

ВЕЛИКИЙ УРАВНИТЕЛЬ
******
Group: Металариец
Posts: 556
Releases: 0
From: Тверь
On Forums: 6 years 6 months
Thanks: 357 time(s)
Unknown


Наконец-то.Солидные пргзаходы в необычность .Но как-то скучновато.
Go to the top of the page
  Insert nick Quick quote
+Quote Post
post Jan 14 2021, 17:37:01
Post #3

MDM-Thrash Metal
**************
Group: Металариец
Posts: 10,077
Releases: 1131
From: Одесса
On Forums: 13 years 5 months
Thanks: 28014 time(s)
Ukraine


Death/Black Metal. И очень уж однооообразно.
Go to the top of the page
  Insert nick Quick quote
+Quote Post

Reply to this topicStart new topic
1 User(s) are reading this topic (1 Guests and 0 Anonymous Users)
0 Members:

 



- Lo-Fi Version Support form
Copyrights and abuse reports form
Time is now: 18th January 2021 - 21:47:05