Welcome Guest ( Log In | Register )

> Releases Upload / Добавление релизов

Добавить релиз тут / Click here to add release
Рекомендованные обменники / Recommended file shares

> Vulpus Rex - Vulpus Rex I (2020), Atmospheric Black/Doom Metal
post Jan 12 2021, 18:09:01
Post #1

Правь статус, ####!616
**************
Group: Металариец
Posts: 5,582
Releases: 4106
From: 55°35’N 38°08’E
On Forums: 12 years 6 months
Thanks: 77197 time(s)
Unknown


(IMG:https://metalarea.org/images/audiocovers/2021_Jan/acov_tid346013_thumb.jpg)

*Artist: Vulpus Rex
*Album: Vulpus Rex I
*Year: 2020
*Genre: Atmospheric Black/Doom Metal
*Country: Italy (IMG:https://metalarea.org/forum/style_images/flags/Italy.png)
*Format: mp3@CBR320kbps
*Size: 122MB

Tracklist:
1.Marion 04:08
2.Hunt 17:08
3.Her Wood 09:06
4.The Wedding Procession 22:43
******************************
Total playing time: 53:05



Technical info
(IMG:https://metalarea.org/images/spectrogram/2021_Jan/29aaac80e2908ab1c3b95eaab9088b94.png)
Input File: 02 Hunt.mp3
Channels : 2
Sample Rate : 44100
Precision : 16-bit
Duration : 00:17:08.74 = 45367258 samples = 77155.2 CDDA sectors
File Size : 41.2M
Bit Rate : 321k
Sample Encoding: MPEG audio (layer I, II or III)
Comments :
Title=Hunt
Artist=Vulpus Rex
Album=Vulpus Rex I
Tracknumber=2
Year=2020
Genre=Atmospheric Black Metal



Register


Go to the top of the page
  Insert nick Quick quote
+Quote Post
 
Start new topic
Replies (1 - 3)
post Jan 13 2021, 10:21:40
Post #2

Правь статус, ####!111
**************
Group: Металариец
Posts: 48,080
Releases: 763
On Forums: 11 years 7 months
Thanks: 41617 time(s)
Russian Federation


Смотря на обложку сабжа, я тихонько напеваю:

Спи, моя радость, усни.
В доме погасли огни,
Птички притихли в саду,
Рыбки уснули в пруду.
Месяц на небе блестит,
Месяц в окошко глядит.
Глазки скорее сомкни,
Спи, моя радость, усни...
Go to the top of the page
  Insert nick Quick quote
+Quote Post
post Jan 13 2021, 13:06:07
Post #3

Два Литра
**
Group: Завсегдатай
Posts: 133
Releases: 0
On Forums: 3 years 8 months
Thanks: 94 time(s)
Zimbabwe


ЦИТАТА(vosmidesijatye @ Jan 13 2021, 13:21:40) *
Смотря на обложку сабжа, я тихонько напеваю:

Спи, моя радость, усни.
В доме погасли огни,
Птички притихли в саду,
Рыбки уснули в пруду.
Месяц на небе блестит,
Месяц в окошко глядит.
Глазки скорее сомкни,
Спи, моя радость, усни...

не труЪ

80й, усни
дом твой сгорел изнутри
птички подохли в саду
рыбки утопли в пруду
бомж под забором лежит
нож между рёбер торчит...
(IMG:style_emoticons/default/1488.gif)


Go to the top of the page
  Insert nick Quick quote
+Quote Post
post Jan 13 2021, 14:49:23
Post #4

Epic Atmospheric Member
**************
Group: Металариец
Posts: 2,072
Releases: 163
From: Deadwood
On Forums: 13 years 5 months
Thanks: 4145 time(s)
Georgia


King Fox? and a song titled Marion? Robin Hood Black Metal!
Go to the top of the page
  Insert nick Quick quote
+Quote Post

Reply to this topicStart new topic
1 User(s) are reading this topic (1 Guests and 0 Anonymous Users)
0 Members:

 



- Lo-Fi Version Support form
Copyrights and abuse reports form
Time is now: 25th January 2021 - 05:08:57