Welcome Guest ( Log In | Register )

> Releases Upload / Добавление релизов

Добавить релиз тут / Click here to add release
Рекомендованные обменники / Recommended file shares

 
Reply to this topicStart new topic
> Lost In Emptiness - Regrets And Sorrow [ep] (2020), Atmospheric/Depressive Black Metal
post Jan 12 2021, 21:13:54
Post #1

Правь статус, ####!616
**************
Group: Металариец
Posts: 5,582
Releases: 4106
From: 55°35’N 38°08’E
On Forums: 12 years 6 months
Thanks: 77193 time(s)
Unknown


(IMG:https://metalarea.org/images/audiocovers/2021_Jan/acov_tid346014_thumb.jpg)

*Artist: Lost In Emptiness
*Album: Regrets And Sorrow [ep]
*Year: 2020
*Genre: Atmospheric/Depressive Black Metal
*Country: Italy (IMG:https://metalarea.org/forum/style_images/flags/Italy.png)
*Format: mp3@CBR320kbps
*Size: 50MB

Tracklist:
1.September Depression 01:53
2.Regrets and Sorrow 04:27
3.Ethereal Melancholy pt1 04:29
4.Ethereal Melancholy pt2 04:31
5.Reaching My End 06:15
******************************
Total playing time: 21:35



Technical info
(IMG:https://metalarea.org/images/spectrogram/2021_Jan/8e9c34509bdd5ec10cd0b65c234c045b.png)
Input File: 02 Regrets and Sorrow.mp3
Channels : 2
Sample Rate : 44100
Precision : 16-bit
Duration : 00:04:27.20 = 11783432 samples = 20039.9 CDDA sectors
File Size : 10.8M
Bit Rate : 323k
Sample Encoding: MPEG audio (layer I, II or III)
Comments :
Title=Regrets and Sorrow
Artist=Lost In Emptiness
Album=Regrets & Sorrow
Tracknumber=2
Year=2020
Genre=Depressive Black Metal



Register


Go to the top of the page
  Insert nick Quick quote
+Quote Post

Reply to this topicStart new topic
1 User(s) are reading this topic (1 Guests and 0 Anonymous Users)
0 Members:

 



- Lo-Fi Version Support form
Copyrights and abuse reports form
Time is now: 25th January 2021 - 04:05:19