Welcome Guest ( Log In | Register )

> Releases Upload / Добавление релизов

Добавить релиз тут / Click here to add release
Рекомендованные обменники / Recommended file shares

> Mitochondrial Sun - Sju Pulsarer (2020), Atmosperic Black Metal
post Jan 12 2021, 21:24:10
Post #1

Пять Литров
*****
Group: Металариец
Posts: 429
Releases: 20
From: Санкт-Петербург
On Forums: 14 years 8 months
Thanks: 1420 time(s)
Russian Federation


(IMG:http://metalarea.org/images/audiocovers/2021_Jan/acov_tid346015_thumb.jpg)

*Artist: Mitochondrial Sun
*Album: Sju Pulsarer
*Year: 2020
*Genre: Atmospheric Black Metal
*Country: Sweden (IMG:http://metalarea.org/forum/style_images/flags/Sweden.png)
*Format: mp3@CBR320kbps
*Size: 66MB

Tracklist:
01. Pulsar 1 04:36
02. Pulsar 2 03:54
03. Pulsar 3 04:02
04. Pulsar 4 02:45
05. Pulsar 5 02:56
06. Pulsar 6 04:15
07. Pulsar 7 03:13
08. Noll Och Intet 02:32
******************************
Total playing time: 28:13



Extended info
The second Mitochondrial Sun album shows a very different side of the project. The material on "Sju Pulsarer" is fast, urgent and chaotic while still being full of emotionally charged melodies and atmospheric soundscapes.
Music by Niklas Sundin.


Technical info
(IMG:http://metalarea.org/images/spectrogram/2021_Jan/82591adbdb617f50eb26de982e91b842.png)
Input File: 01 - Pulsar 1.mp3
Channels : 2
Sample Rate : 44100
Precision : 16-bit
Duration : 00:00:00.28 = 12128 samples = 20.6259 CDDA sectors
File Size : 11.2M
Bit Rate : 326M
Sample Encoding: MPEG audio (layer I, II or III)
Comments :
Title=Pulsar 1
Artist=Mitochondrial Sun
Album=Sju Pulsarer
Tracknumber=01
Year=2020-13-11
Genre=Atmospheric Black Metal



Register


Go to the top of the page
  Insert nick Quick quote
+Quote Post
 
Start new topic
Replies (1 - 7)
post Jan 13 2021, 11:08:58
Post #2

Правь статус, ####!111
**************
Group: Металариец
Posts: 48,001
Releases: 761
On Forums: 11 years 7 months
Thanks: 41511 time(s)
Russian Federation


Зря он банальную чернышную тарахтелку зарядил, указанной "синематографичности" она не добавляет, лишь банально жужжит фоном. Вот попробуй он записать атмосферную, возвышенную, по настоящему Синематографичную Музыку, тогда было бы это интересно. Ведь может же он, учитывая его стаж и опыт.
Go to the top of the page
  Insert nick Quick quote
+Quote Post
post Jan 13 2021, 11:29:56
Post #3

Ледоруб
**************
Group: Металариец
Posts: 27,274
Releases: 0
From: Санкт-Петербург
On Forums: 11 years 4 months
Thanks: 9790 time(s)
Russian Federation


Неплохой альбом.
Go to the top of the page
  Insert nick Quick quote
+Quote Post
post Jan 13 2021, 11:49:00
Post #4

ВЕЛИКИЙ УРАВНИТЕЛЬ
******
Group: Металариец
Posts: 556
Releases: 0
From: Тверь
On Forums: 6 years 6 months
Thanks: 357 time(s)
Unknown


ЦИТАТА(vosmidesijatye @ Jan 13 2021, 12:08:58) *
. Ведь может же он,

Наверное не он ,а ОН.
Отец и главный соунграйтер Дарк транквилити.Последний из могикан .Последний из первого состава.Основатель.Почему и он ушел недавно ? Чото там не чисто все так ,не договаривают.Хотя уже не изменишь.Но когда я услышал ,что и Сундин уходит, так екнуло ,что ..
А вообще неожиданный альбом .Играет в свою охотку .Чисто все пофк.И показывает этим откуда все это перло .
А вообще нужен Флаак .Вешь реальная . (IMG:style_emoticons/default/25.gif)
Go to the top of the page
  Insert nick Quick quote
+Quote Post
post Jan 13 2021, 16:34:49
Post #5

Литр
*
Group: Подсевший
Posts: 53
Releases: 0
On Forums: 13 years 7 months
Thanks: 50 time(s)
Russian Federation


Очень неожиданно слышать атмо-блэк от Сундина. Первая вещь рвет на части, шедевр. Вторая неплоха. А вот дальше - пустышка((((
Go to the top of the page
  Insert nick Quick quote
+Quote Post
post Jan 13 2021, 22:44:35
Post #6

Литр
*
Group: Подсевший
Posts: 59
Releases: 17
On Forums: 11 years 6 months
Thanks: 315 time(s)
Ukraine


Очень даже достойно
Go to the top of the page
  Insert nick Quick quote
+Quote Post
post Jan 14 2021, 12:20:46
Post #7

Маньяк
**********
Group: Металариец
Posts: 1,402
Releases: 3
From: Новороссия
On Forums: 14 years 11 months
Thanks: 773 time(s)
Russian Federation


Не впечатлило, быстро надоело.
Go to the top of the page
  Insert nick Quick quote
+Quote Post
post Jan 15 2021, 10:03:55
Post #8

0%Tolerance
******
Group: Металариец
Posts: 615
Releases: 0
On Forums: 8 years 4 months
Thanks: 108 time(s)
Unknown


ЦИТАТА(trueandevil @ Jan 13 2021, 17:34:49) *
Первая вещь рвет на части, шедевр. Вторая неплоха. А вот дальше - пустышка((((


Здесь одна сплошная пустышка на всём протяжении.
Go to the top of the page
  Insert nick Quick quote
+Quote Post

Reply to this topicStart new topic
1 User(s) are reading this topic (1 Guests and 0 Anonymous Users)
0 Members:

 



- Lo-Fi Version Support form
Copyrights and abuse reports form
Time is now: 18th January 2021 - 21:03:53