Welcome Guest ( Log In | Register )

> Releases Upload / Добавление релизов

Добавить релиз тут / Click here to add release
Рекомендованные обменники / Recommended file shares

> Fractal Generator - Macrocosmos (2021), Technical Death Metal
post Jan 12 2021, 22:34:54
Post #1

Правь статус, ####!111
**************
Group: Металариец
Posts: 24,668
Releases: 17474
From: Г.Харьков
On Forums: 8 years 8 months
Thanks: 338320 time(s)
Unknown


(IMG:http://metalarea.org/images/audiocovers/2021_Jan/acov_tid346016_thumb.jpg)

*Artist: Fractal Generator
*Album: Macrocosmos
*Year: 2021
*Genre: Technical Death Metal
*Country: Canada (IMG:http://metalarea.org/forum/style_images/flags/Canada.png)
*Format: mp3@CBR320kbps
*Size: 98MB

Tracklist:
1. Macrocosmos 05:44
2. Aeon 04:22
3. Serpentine 04:41
4. Contagion 04:20
5. Chaosphere 04:35
6. Shadows of Infinity 05:02
7. Pendulum 04:12
8. Primordial 05:12
9. Ethereal 04:10
******************************
Total playing time: 42:18





Extended info
040118180514 Bass, Vocals
040114090512 Drums
102119200914 Guitars, Vocals



Technical info
(IMG:http://metalarea.org/images/spectrogram/2021_Jan/6f1097202603e5292f8760a686168721.png)
Input File: 08 - Primordial.mp3
Channels : 2
Sample Rate : 44100
Precision : 16-bit
Duration : 00:05:12.08 = 13762684 samples = 23405.9 CDDA sectors
File Size : 12.6M
Bit Rate : 323k
Sample Encoding: MPEG audio (layer I, II or III)
Comments :
Title=Primordial
Artist=Fractal Generator
Album=Macrocosmos
Tracknumber=08/09
Year=2021
Genre=Technical Death Metal



Register


Go to the top of the page
  Insert nick Quick quote
+Quote Post
 
Start new topic
Replies (1 - 3)
post Jan 13 2021, 02:35:58
Post #2

Правь статус, ####!111
**************
Group: Металариец
Posts: 24,668
Releases: 17474
From: Г.Харьков
On Forums: 8 years 8 months
Thanks: 338320 time(s)
Unknown


FLAC (Tracks) 327 mb
Register


Go to the top of the page
  Insert nick Quick quote
+Quote Post
post Jan 14 2021, 06:06:37
Post #3

Crush! Kill! Destroy!
**************
Group: Металариец
Posts: 5,677
Releases: 15
From: Kaliningrad
On Forums: 13 years 2 months
Thanks: 5375 time(s)
Russian Federation


А внезапно интересно получилось, надо будет переслушать. Ибо первый альбом был так себе, безвкусен.
Go to the top of the page
  Insert nick Quick quote
+Quote Post
post Jan 14 2021, 09:58:09
Post #4

Два Литра
**
Group: Завсегдатай
Posts: 192
Releases: 0
From: Нижний Новгород
On Forums: 11 years 2 months
Thanks: 46 time(s)
Russian Federation


ЦИТАТА(Dmitry1977 @ Jan 14 2021, 08:06:37) *
А внезапно интересно получилось, надо будет переслушать. Ибо первый альбом был так себе, безвкусен.
Да этот ровным счётом такой же, как и сотни других похожих. Играть вроде научились, а самобытности (считай интереса) - никакого.


Thanks:
(1) Evilded,
Go to the top of the page
  Insert nick Quick quote
+Quote Post

Reply to this topicStart new topic
3 User(s) are reading this topic (3 Guests and 0 Anonymous Users)
0 Members:

 



- Lo-Fi Version Support form
Copyrights and abuse reports form
Time is now: 25th January 2021 - 04:27:43