Welcome Guest ( Log In | Register )

> Releases Upload / Добавление релизов

Добавить релиз тут / Click here to add release
Рекомендованные обменники / Recommended file shares

> Sunreaver - The Esoterics [ep] (2021), Blackened Death Metal
post Jan 12 2021, 23:53:35
Post #1

Правь статус, ####!111
**************
Group: Металариец
Posts: 24,668
Releases: 17474
From: Г.Харьков
On Forums: 8 years 8 months
Thanks: 338324 time(s)
Unknown


(IMG:http://metalarea.org/images/audiocovers/2021_Jan/acov_tid346017_thumb.jpg)

*Artist: Sunreaver
*Album: The Esoterics [ep]
*Year: 2021
*Genre: Blackened Death Metal
*Country: United States (IMG:http://metalarea.org/forum/style_images/flags/United%20States.png)
*Format: mp3@CBR320kbps
*Size: 63MB

Tracklist:
1. Oculus 02:41
2. Extinction Entity 04:39
3. The Immersion 04:17
4. Demiurge 02:53
5. Anointed by Blasphemy 03:54
6. The Charnel Womb 02:29
7. ...of the Void 03:07
8. Gnosis 02:38
******************************
Total playing time: 26:38




Extended info
Nate Dunn Guitars, Vocals (2018-present)
Owen Von Mechow Vocals (2018-present)


Technical info
(IMG:http://metalarea.org/images/spectrogram/2021_Jan/d4b9dab844c737e55697a3a3a745b3a1.png)
Input File: 03 The Immersion.mp3
Channels : 2
Sample Rate : 44100
Precision : 16-bit
Duration : 00:04:17.58 = 11359322 samples = 19318.6 CDDA sectors
File Size : 10.6M
Bit Rate : 330k
Sample Encoding: MPEG audio (layer I, II or III)
Comments :
Title=The Immersion
Artist=Sunreaver
Album=The Esoterics
Tracknumber=3/8
Year=2021-21-20
Genre=Metal
Discnumber=1/1



Register


Go to the top of the page
  Insert nick Quick quote
+Quote Post
 
Start new topic
Replies (1 - 2)
post Jan 13 2021, 05:27:08
Post #2

Group: Дух
Posts: 6
Releases: 0
From: Санкт-Петербург
On Forums: 1 week 5 days
Thanks: 1 time(s)
Russian Federation


Обложка неплохая,но сейчас бы по картинке судить.Название альбома привлекло.
По первым секундам понравилась атмосфера.И иногда она нет-нет,да и прорывается,но безуспешно. Но,к сожалению, ни самобытностью, ни качеством звука похвастаться данная группа не может.Звук,как из жестяной банки. Максимально близок к правде последний трек.
Сохранять в фонотеке не стала.

Обложка неплохая,но сейчас бы по картинке судить.Название альбома привлекло.
По первым секундам понравилась атмосфера.И иногда она нет-нет,да и прорывается,но безуспешно. Но,к сожалению, ни самобытностью, ни качеством звука похвастаться данная группа не может.Звук,как из жестяной банки. Максимально близок к правде последний трек.
Сохранять в фонотеке не стала.
Go to the top of the page
  Insert nick Quick quote
+Quote Post
post Jan 14 2021, 12:45:57
Post #3

Восемь Литров
********
Group: Металариец
Posts: 836
Releases: 1
From: APATIN, SERBIA, АПАТИН, СЕРБИЯ
On Forums: 13 years 3 months
Thanks: 1682 time(s)



Flac

Register


Thanks:
(1) Olethros,
Go to the top of the page
  Insert nick Quick quote
+Quote Post

Reply to this topicStart new topic
1 User(s) are reading this topic (1 Guests and 0 Anonymous Users)
0 Members:

 



- Lo-Fi Version Support form
Copyrights and abuse reports form
Time is now: 25th January 2021 - 05:40:21