Welcome Guest ( Log In | Register )

> И неформату есть предел.

Рэп/хип-хоп/шансон/поп удаляются. Для них есть свои порталы.

> October Falls - Syys (2020), Acoustic Neofolk (D)
post Jan 20 2021, 10:51:38
Post #1

врач педиатр-патологоанатом
*****
Group: Металариец
Posts: 482
Releases: 22
From: Кадыкчан
On Forums: 11 years 7 months
Thanks: 508 time(s)
Russian Federation


(IMG:http://metalarea.org/images/audiocovers/2021_Jan/acov_tid346290_thumb.jpg)

*Artist: October Falls
*Album: Syys
*Year: 2020
*Genre: Acoustic Neofolk
*Country: Finland (IMG:http://metalarea.org/forum/style_images/flags/Finland.png)
*Format: mp3@CBR320kbps
*Size: 77MB

Tracklist:
1. I 06:27
2. II 03:27
3. III 04:58
4. IV 05:01
5. V 03:46
6. VI 03:32
7. VII 03:49
8. VIII 01:35
******************************
Total playing time: 32:35



Technical info
(IMG:http://metalarea.org/images/spectrogram/2021_Jan/9924205cea47ecc171e4c3febe04f9d7.png)
Input File: 03 - Syys III.mp3
Channels : 2
Sample Rate : 44100
Precision : 16-bit
Duration : 00:04:58.34 = 13156706 samples = 22375.4 CDDA sectors
File Size : 12.6M
Bit Rate : 338k
Sample Encoding: MPEG audio (layer I, II or III)
Comments :
Title=Syys III
Artist=October Falls
Album=Syys
Tracknumber=3
Year=2020
Genre=Dark Folk/Neofolk



Register


Go to the top of the page
  Insert nick Quick quote
+Quote Post
 
Start new topic
Replies (1 - 3)
post Jan 21 2021, 11:30:33
Post #2

Правь статус, ####!111
**************
Group: Металариец
Posts: 4,294
Releases: 17
From: Holland
On Forums: 14 years 7 months
Thanks: 1391 time(s)
Netherlands


Интро, растянутое на 32 минуты, без вокала, на акустике. Ну такое... (IMG:style_emoticons/default/smile1.gif)
Go to the top of the page
  Insert nick Quick quote
+Quote Post
post Jan 24 2021, 18:46:21
Post #3

Два Литра
**
Group: Завсегдатай
Posts: 140
Releases: 0
On Forums: 12 years 5 months
Thanks: 123 time(s)
Russian Federation


Фигасе второй полноформат за год шоль? Почёмкаем.
Акустика. Дрыньки. Всё неизменно со времён дебютного EP. Запоминающегося ничего нет, но приятне, сцуко. Атмсфреы добавляет удачно привлечённый на роль бэк-вокалиста филин. Или неясыть, или ещё какая сова - не суть важно, главное, что уделывает многие клин-войсы на "природных" релизах. Вспомнилась апрельская ночёвка в палатке в одном лесном походе, тоже что-то подобное кричало нипадецки.
В общем и целом, учитывая обстоятельства, настоящим стоит отметить, что альбом хорошо лёг на пасмурный вечер и доставил. Хотя я уже и не могу вспомнить ни одного музыкального хода или мелодии, но определённое послевкусие есть.


Thanks:
Go to the top of the page
  Insert nick Quick quote
+Quote Post
post Jan 30 2021, 20:05:18
Post #4

Мегаманьяк
***********
Group: Металариец
Posts: 1,676
Releases: 278
On Forums: 12 years 3 months
Thanks: 6051 time(s)
Russian Federation


FLAC tracks
Register
Go to the top of the page
  Insert nick Quick quote
+Quote Post

Reply to this topicStart new topic
1 User(s) are reading this topic (1 Guests and 0 Anonymous Users)
0 Members:

 



- Lo-Fi Version Support form
Copyrights and abuse reports form
Time is now: 25th February 2021 - 03:41:19