Welcome Guest ( Log In | Register )

> Dipygus - Bushmeat (2021), Old School Death Metal
post Jan 26 2021, 03:53:56
Post #1

Правь статус, ####!111
**************
Group: Металариец
Posts: 25,711
Releases: 18394
From: Г.Харьков
On Forums: 8 years 11 months
Thanks: 362815 time(s)
Unknown


(IMG:http://metalarea.org/images/audiocovers/2021_Jan/acov_tid346492_thumb.jpg)

*Artist: Dipygus
*Album: Bushmeat
*Year: 2021
*Genre: Old School Death Metal
*Country: United States (IMG:http://metalarea.org/forum/style_images/flags/United%20States.png)
*Format: mp3@CBR320kbps
*Size: 85MB

Tracklist:
1. Ape Sounds 00:54
2. St. Augustine, FL 1896 03:00
3. The Khumjung Scalp 03:54
4. Osteodontokeratic Savagery 05:59
5. Plasmoidal Mass (Slime Mold) 05:16
6. BushMeat 06:54
7. Long-Pig Feast 05:30
8. Myiasis in Human Mouth 04:44
9. Ape Sounds II 00:51
******************************
Total playing time: 37:02




Extended info
Dayan Bass, Vocals (backing) (2013-present)
See also: Gloam, ex-Gorphyryac
Sam Drums (2013-2019), Guitars (2019-present)
See also: Death Monk, Folivore, Cosmic Reef Temple, The Grumblers
Dustin Guitars (2013-present)
Clarisa Vocals (2016-present)
Bog Stomper Drums (2019-present)
See also: Gloam, ex-Gorphyryac (live)




Technical info
(IMG:http://metalarea.org/images/spectrogram/2021_Jan/2eda5fd9e0075afba69d3796070fd207.png)
Input File: 06. Bushmeat.mp3
Channels : 2
Sample Rate : 44100
Precision : 16-bit
Duration : 00:06:54.05 = 18259649 samples = 31053.8 CDDA sectors
File Size : 16.6M
Bit Rate : 320k
Sample Encoding: MPEG audio (layer I, II or III)
Comments :
Title=Bushmeat
Artist=Dipygus
Album=Bushmeat
Tracknumber=06
Year=2021



Register


Go to the top of the page
  Insert nick Quick quote
+Quote Post
 
Start new topic
Replies (1 - 5)
post Jan 27 2021, 11:07:51
Post #2

Туфлєблек то є файно
**************
Group: Металариец
Posts: 2,353
Releases: 0
From: Україна
On Forums: 12 years 3 months
Thanks: 1829 time(s)
Ukraine


Спасибище, очень ждал.
(IMG:style_emoticons/default/metaler.gif) (IMG:style_emoticons/default/9.gif) (IMG:style_emoticons/default/pray.gif)


Thanks:
Go to the top of the page
  Insert nick Quick quote
+Quote Post
post Jan 27 2021, 13:02:40
Post #3

Пять Литров
*****
Group: Металариец
Posts: 484
Releases: 0
From: германия
On Forums: 12 years 4 months
Thanks: 179 time(s)
Russian Federation


Отличный Дез Металл. Первый альбом даже на диске прикупил.
Go to the top of the page
  Insert nick Quick quote
+Quote Post
post Jan 27 2021, 13:12:12
Post #4

Group: Подсевший
Posts: 38
Releases: 0
On Forums: 8 years 11 months
Thanks: 4 time(s)
Russian Federation


Вкусняга (IMG:style_emoticons/default/20.gif)
Go to the top of the page
  Insert nick Quick quote
+Quote Post
post Jan 30 2021, 20:49:18
Post #5

кручу наждак
**************
Group: Металариец
Posts: 4,860
Releases: 103
From: Самара
On Forums: 10 years 11 months
Thanks: 3870 time(s)
Russian Federation


Не, вообще не моя тема. Слишком аморфно и тягомотно.
Go to the top of the page
  Insert nick Quick quote
+Quote Post
post Jan 31 2021, 15:56:41
Post #6

Шесть Литров
******
Group: Металариец
Posts: 504
Releases: 0
From: Лыткарино
On Forums: 1 year 11 months
Thanks: 132 time(s)
Russian Federation


Да, аморфно и невыразительно. Чисто на любителя именно такой подачи.
Go to the top of the page
  Insert nick Quick quote
+Quote Post

Reply to this topicStart new topic
2 User(s) are reading this topic (2 Guests and 0 Anonymous Users)
0 Members:

 



- Lo-Fi Version Support form
Copyrights and abuse reports form
Time is now: 14th April 2021 - 14:30:10