Welcome Guest ( Log In | Register )

> Gengis Khan - Colder Than Heaven (2021), Heavy/Speed Metal
post Jan 27 2021, 15:25:07
Post #1

Правь статус, ####!111
**************
Group: Металариец
Posts: 28,179
Releases: 20563
From: Г.Харьков
On Forums: 9 years 6 months
Thanks: 418883 time(s)
Unknown


(IMG:http://metalarea.org/images/audiocovers/2021_Jan/acov_tid346541_thumb.jpg)

*Artist: Gengis Khan
*Album: Colder Than Heaven
*Year: 2021
*Genre: Heavy/Speed Metal
*Country: Italy (IMG:http://metalarea.org/forum/style_images/flags/Italy.png)
*Format: mp3@CBR320kbps
*Size: 79MB

Tracklist:
1. No Surrender
2. Colder Than Heaven
3. He's the King
4. Reinventing the Fire
5. Time to Kill
6. Taken by Force
7. War in the Fields
******************************
Total playing time: 34:21




Extended info
Frank Leone Vocals, Guitars (2012-2018), Vocals, Bass (2018-present)
See also: Vescera, Circus Nebula (live), ex-Nitehawks, ex-Nasty Tendency
Giannis Lassa Drums (2018-present)
Mike Petrone Guitars (2018-present)
See also: Vescera, ex-Nitehawks


Technical info
(IMG:http://metalarea.org/images/spectrogram/2021_Jan/5a9adac7a2918ff97ef50ffa25cf28de.png)
Input File: 07 - War in the Fields.mp3
Channels : 2
Sample Rate : 44100
Precision : 16-bit
Duration : 00:05:21.61 = 14183045 samples = 24120.8 CDDA sectors
File Size : 13.0M
Bit Rate : 322k
Sample Encoding: MPEG audio (layer I, II or III)
Comments :
Title=War in the Fields
Artist=Gengis Khan
Album=Colder Than Heaven
Tracknumber=7
Year=2021



Register


Go to the top of the page
  Insert nick Quick quote
+Quote Post
 
Start new topic
Replies (1 - 2)
post Jan 28 2021, 09:33:18
Post #2

Наливай!
**************
Group: Металариец
Posts: 6,079
Releases: 27
From: Москва-Бибирево
On Forums: 13 years 8 months
Thanks: 3158 time(s)
Russian Federation


Что то типо нашего Kruger
Go to the top of the page
  Insert nick Quick quote
+Quote Post
post Feb 1 2021, 20:31:12
Post #3
BAN
Banned till
Dec 4 2021, 18:04:22



Лаконичный и мощный альбом
Go to the top of the page
  Insert nick Quick quote
+Quote Post

Reply to this topicStart new topic
1 User(s) are reading this topic (1 Guests and 0 Anonymous Users)
0 Members:

 



- Lo-Fi Version Support form
Copyrights and abuse reports form
Time is now: 4th December 2021 - 23:27:49