Welcome Guest ( Log In | Register )

> Devotion - The Harrowing (2021), Old School Death Metal
post Jan 29 2021, 16:52:29
Post #1

Правь статус, ####!111
**************
Group: Металариец
Posts: 25,711
Releases: 18394
From: Г.Харьков
On Forums: 8 years 11 months
Thanks: 362817 time(s)
Unknown


(IMG:http://metalarea.org/images/audiocovers/2021_Jan/acov_tid346630_thumb.jpg)

*Artist: Devotion
*Album: The Harrowing
*Year: 2021
*Genre: Old School Death Metal
*Country: Spain (IMG:http://metalarea.org/forum/style_images/flags/Spain.png)
*Format: mp3@CBR320kbps
*Size: 116MB

Tracklist:
1. The Harrowing 01:11
2. God Forlorn 04:03
3. Megiddo's 05:40
4. Brethren In Gloom 00:50
5. Valley of Death 04:39
6. Birth of Horror 05:05
7. Mangled Angels 00:47
8. Feast of Esdras 05:36
9. The Mournful Beam 06:29
10. Depravity 00:35
11. Demon Sleep 05:12
12. Virtue Besmirched 08:01
13. Penumbra 00:30
******************************
Total playing time: 48:38




Extended info
David García Drums (2013-present)
See also: ex-Nadir, ex-Obscure
Nosfer Guitars (2013, 2020-present)
See also: Orthodoxy, Profundis Tenebrarum, ex-Der Führer des Schattens, ex-Slugfeast, ex-Obscure, ex-Deadhermit
Vicent Riera Vocals (2013-present)
See also: ex-Nadir, ex-Der Führer des Schattens, ex-Obscure, ex-Offense
Txito Bass (2016-present)
See also: Visceral Damage, ex-Voice of Hate, ex-Encabronation
Jesús Francés Guitars (2019-present)
See also: ex-Fall of Man




Technical info
(IMG:http://metalarea.org/images/spectrogram/2021_Jan/8032962f181d683e43b83c448e883c15.png)
Input File: 08. Feast of Esdras.mp3
Channels : 2
Sample Rate : 44100
Precision : 16-bit
Duration : 00:05:36.11 = 14822583 samples = 25208.5 CDDA sectors
File Size : 13.9M
Bit Rate : 330k
Sample Encoding: MPEG audio (layer I, II or III)
Comments :
Title=Feast of Esdras
Artist=Devotion
Album=The Harrowing (320)
Tracknumber=08
Year=2021
Genre=Metal



Register


Go to the top of the page
  Insert nick Quick quote
+Quote Post
 
Start new topic
Replies (1 - 4)
post Jan 30 2021, 03:25:52
Post #2

Правь статус, ####!111
**************
Group: Металариец
Posts: 25,711
Releases: 18394
From: Г.Харьков
On Forums: 8 years 11 months
Thanks: 362817 time(s)
Unknown


FLAC (Tracks) 333 mb
Register


Go to the top of the page
  Insert nick Quick quote
+Quote Post
post Jan 30 2021, 10:02:15
Post #3

Туфлєблек то є файно
**************
Group: Металариец
Posts: 2,353
Releases: 0
From: Україна
On Forums: 12 years 3 months
Thanks: 1829 time(s)
Ukraine


Спасибо, ждал.
Превьюшки понравились, хорошая штука.
(IMG:style_emoticons/default/metaler.gif) (IMG:style_emoticons/default/9.gif) (IMG:style_emoticons/default/pray.gif)


Thanks:
Go to the top of the page
  Insert nick Quick quote
+Quote Post
post Feb 4 2021, 22:38:16
Post #4

Совки, гулаги, дефициты
***********
Group: Металариец
Posts: 1,738
Releases: 0
From: Беларусь, Минск
On Forums: 13 years 9 months
Thanks: 872 time(s)
Belarus


Отличный альбом.


Thanks:
Go to the top of the page
  Insert nick Quick quote
+Quote Post
post Mar 13 2021, 13:22:43
Post #5

Common dweller of hell
**************
Group: Металариец
Posts: 3,661
Releases: 11
From: Dnipro
On Forums: 12 years 9 months
Thanks: 1419 time(s)
Ukraine


Отличный среднетемповый Death Metal


Thanks:
(1) Occultas,
Go to the top of the page
  Insert nick Quick quote
+Quote Post

Reply to this topicStart new topic
2 User(s) are reading this topic (2 Guests and 0 Anonymous Users)
0 Members:

 



- Lo-Fi Version Support form
Copyrights and abuse reports form
Time is now: 14th April 2021 - 15:22:08