Welcome Guest ( Log In | Register )

> Remorse - Kohó (2021), Old School Thrash Metal
post Jan 29 2021, 19:28:07
Post #1

Правь статус, ####!111
**************
Group: Металариец
Posts: 25,711
Releases: 18394
From: Г.Харьков
On Forums: 8 years 11 months
Thanks: 362817 time(s)
Unknown


(IMG:http://metalarea.org/images/audiocovers/2021_Jan/acov_tid346637_thumb.jpg)

*Artist: Remorse
*Album: Kohó
*Year: 2021
*Genre: Old School Thrash Metal
*Country: Hungary (IMG:http://metalarea.org/forum/style_images/flags/Hungary.png)
*Format: mp3@CBR320kbps
*Size: 130MB

Tracklist:
1. Zuzzad az ercet
2. Hazudnak
3. Meg egyszer
4. Sodor az elet
5. Gyozni fogsz
6. Jelbeszed
7. Indulunk
8. Hollywood
9. Jobaratom
10. Mindent vagy semmit
11. A szo elszall
12. Monoton
13. Kuzdesz
14. 90
******************************
Total playing time: 56:05



Extended info
Zsolt Oláh Guitars, Vocals (1990-present)
See also: ex-Dessant
Kálmán Oláh Drums (2001-present)
See also: ex-Morass
Róbert Hocza Guitars (2006-present)
See also: Mytra, ex-Prophecy, ex-NG's Battlecry
Imre Ráczkevi Vocals (2006-present)
See also: Decadence
Péter Szabó Bass (2011-present)
See also: ex-H.I.V. Positive


Technical info
(IMG:http://metalarea.org/images/spectrogram/2021_Jan/34b4bdb88b6c0454ddeece971d0d816d.png)
Input File: 07 - Indulunk.mp3
Channels : 2
Sample Rate : 44100
Precision : 16-bit
Duration : 00:05:46.19 = 15267111 samples = 25964.5 CDDA sectors
File Size : 14.0M
Bit Rate : 323k
Sample Encoding: MPEG audio (layer I, II or III)
Comments :
Title=Indulunk
Artist=Remorse
Album=Kohó
Tracknumber=7
Year=2021



Register


Go to the top of the page
  Insert nick Quick quote
+Quote Post
 
Start new topic
Replies (1 - 3)
post Jan 30 2021, 15:39:48
Post #2

Туфлєблек то є файно
**************
Group: Металариец
Posts: 2,353
Releases: 0
From: Україна
On Forums: 12 years 3 months
Thanks: 1829 time(s)
Ukraine




Go to the top of the page
  Insert nick Quick quote
+Quote Post
post Jan 30 2021, 15:51:26
Post #3

Black Death Grind Madness
******
Group: Металариец
Posts: 565
Releases: 0
From: Cassilandia
On Forums: 12 years 9 months
Thanks: 66 time(s)
Brazil


Flac please thanks cheers
Go to the top of the page
  Insert nick Quick quote
+Quote Post
post Jan 31 2021, 08:48:36
Post #4

Пять Литров
*****
Group: Металариец
Posts: 458
Releases: 0
From: Ташкент
On Forums: 13 years 2 months
Thanks: 143 time(s)
Uzbekistan


Венгры умеют играть свой, ни на кого не похожий рок. И трэш у них вот не такой трэш, как в США или остальной Европе. Молодцы.
Go to the top of the page
  Insert nick Quick quote
+Quote Post

Reply to this topicStart new topic
2 User(s) are reading this topic (2 Guests and 0 Anonymous Users)
0 Members:

 



- Lo-Fi Version Support form
Copyrights and abuse reports form
Time is now: 14th April 2021 - 15:34:14