Welcome Guest ( Log In | Register )

> Правила / Rules

Тут только для чтения лежат низкобитрейтные (<192kbps) релизы, для которых есть аналоги в высокобитрейтных форумах.

Here goes (and stand in read only mode) low bitrate releases (<192kbps) which were already replaced by high bitrate releases in corresponding forums.

> Serenity In Murder - Reborn (2021), Symphonic/Melodic Death Metal (D7)
post Feb 11 2021, 11:10:20
Post #1

Пять Литров
*****
Group: Металариец
Posts: 486
Releases: 215
From: Kosice
On Forums: 12 years 7 months
Thanks: 4102 time(s)
Slovakia


(IMG:http://metalarea.org/images/audiocovers/2021_Feb/acov_tid347204_thumb.jpg)

*Artist: Serenity In Murder
*Album: Reborn
*Year: 2021
*Genre: Symphonic/Melodic Death Metal
*Country: Japan (IMG:http://metalarea.org/forum/style_images/flags/Japan.png)
*Format: mp3@CBR128kbps (IMG:http://metalarea.org/images/bit_low.gif)
*Size: 38MB

Tracklist:
1. The Great Beyond 01:23
2. Anthem 03:54
3. Plead for Your Life 04:37
4. The Titans 03:22
5. Sea of Stars 05:43
6. Rain or Shine 03:28
7. Leaves Burned to Ashes 03:58
8. Beast in Human Shape 04:08
9. The Black Sun 03:15
10. The Glow of Embers 03:09
11. The Four Seasons 4:10
******************************
Total playing time: 41:07



Extended info
Ryuji Guitars
Freddy Guitars, Orchestrations
Yu-ri Bass
Allen Drums
Ayumu Vocals


Technical info
(IMG:http://metalarea.org/images/spectrogram/2021_Feb/53334705eb67d1e2f945b8762fa0fc50.png)
Input File: 02 Anthem.mp3
Channels : 2
Sample Rate : 44100
Precision : 16-bit
Duration : 00:03:53.77 = 10309389 samples = 17533 CDDA sectors
File Size : 3.74M
Bit Rate : 128k
Sample Encoding: MPEG audio (layer I, II or III)
Comments :
Title=Anthem
Artist=Serenity In Murder
Album=Reborn
Tracknumber=2
Year=2021
Genre=Melodic Death Metal



Register


Go to the top of the page
  Insert nick Quick quote
+Quote Post
 
Start new topic
Replies (1 - 1)
post Feb 15 2021, 20:16:23
Post #2

Live Again!!!
**********
Group: Металариец
Posts: 1,222
Releases: 198
From: Whitecity
On Forums: 12 years 8 months
Thanks: 3541 time(s)
Russian Federation


Вот ссылка на 320 kbps
Register


Go to the top of the page
  Insert nick Quick quote
+Quote Post

Причина закрытия (Borderline1991 16-02-2021):
Closed TopicStart new topic
2 User(s) are reading this topic (2 Guests and 0 Anonymous Users)
0 Members:

 



- Lo-Fi Version Support form
Copyrights and abuse reports form
Time is now: 26th February 2021 - 22:28:53