Welcome Guest ( Log In | Register )

> Yaşru - Maral [single] (2019), Doom/Folk Metal
post Feb 15 2021, 15:09:14
Post #1

Правь статус, ####!111
**************
Group: Металариец
Posts: 4,263
Releases: 161
From: MoscoW
On Forums: 14 years 4 months
Thanks: 4306 time(s)
Russian Federation


(IMG:https://metalarea.org/images/audiocovers/2021_Feb/acov_tid347381_thumb.jpg)

*Artist: Yaşru
*Album: Maral [single]
*Year: 2019
*Genre: Doom/Folk Metal
*Country: Turkey (IMG:https://metalarea.org/forum/style_images/flags/Turkey.png)
*Format: mp3@CBR256kbps
*Size: 8MB

Tracklist:
01. Maral 04:13
******************************
Total playing time: 4:13

Extended info



Technical info
(IMG:https://metalarea.org/images/spectrogram/2021_Feb/45c520d8ff19dfcd4f9a9ddf37f567e3.png)
Input File: 01. Maral.mp3
Channels : 2
Sample Rate : 48000
Precision : 16-bit
Duration : 00:04:15.98 = 12287232 samples ~ 19198.8 CDDA sectors
File Size : 8.68M
Bit Rate : 271k
Sample Encoding: MPEG audio (layer I, II or III)
Comments :
Title=Yaşru - Maral
Artist=Yaşru
Album=Xmp3.net
Tracknumber=01
Genre=Xmp3.net



Register


Go to the top of the page
  Insert nick Quick quote
+Quote Post
 
Start new topic
Replies (1 - 3)
post Feb 16 2021, 10:41:19
Post #2

Правь статус, ####!111
**************
Group: Металариец
Posts: 2,531
Releases: 229
On Forums: 14 years 4 months
Thanks: 6164 time(s)
Unknown


Правильно, срал и замарал. (IMG:style_emoticons/default/crazy.gif)


Thanks:
(1) nsk2008,
Go to the top of the page
  Insert nick Quick quote
+Quote Post
post Feb 16 2021, 11:12:31
Post #3

Девять Литров
*********
Group: Металариец
Posts: 978
Releases: 0
From: Цимлянск
On Forums: 6 years 10 months
Thanks: 263 time(s)
Russian Federation


ЦИТАТА(kostja @ Feb 16 2021, 14:41:19) *
Правильно, срал и замарал. (IMG:style_emoticons/default/crazy.gif)

Yaşru (Яшру) - ,,Таинство" с турецкого.


Thanks:
Go to the top of the page
  Insert nick Quick quote
+Quote Post
post Feb 16 2021, 12:20:04
Post #4

Пять Литров
*****
Group: Металариец
Posts: 414
Releases: 0
From: Москва
On Forums: 14 years 5 months
Thanks: 97 time(s)
Russian Federation


В Россию им на гастроли приезжать явно не стоит.


Thanks:
(1) kostja,
Go to the top of the page
  Insert nick Quick quote
+Quote Post

Reply to this topicStart new topic
2 User(s) are reading this topic (2 Guests and 0 Anonymous Users)
0 Members:

 



- Lo-Fi Version Support form
Copyrights and abuse reports form
Time is now: 17th April 2021 - 23:38:37