Welcome Guest ( Log In | Register )

> Releases Upload / Добавление релизов

Добавить релиз тут / Click here to add release
Рекомендованные обменники / Recommended file shares

> Spire - Temple Of Khronos (2021), Black Metal (D)
post Feb 19 2021, 07:06:34
Post #1

Правь статус, ####!111
**************
Group: Металариец
Posts: 2,189
Releases: 1748
From: Praha
On Forums: 6 years 10 months
Thanks: 45996 time(s)
Czech Republic


(IMG:http://metalarea.org/images/audiocovers/2021_Feb/acov_tid347538_thumb.jpg)

*Artist: Spire
*Album: Temple Of Khronos
*Year: 2021
*Genre: Black Metal
*Country: Australia (IMG:http://metalarea.org/forum/style_images/flags/Australia.png)
*Format: mp3@CBR320kbps
*Size: 94MB

Tracklist:
1. Chronometer 01:23
2. Hymn I - Tyrant 06:03
3. Hymn II - Tormentor 10:12
4. Hymn III - Harbinger 05:21
5. Interlude - Antithesis 02:58
6. Hymn IV - Puissant 08:07
7. Hymn V - Khronos 05:52
******************************
Total playing time: 39:56



Technical info
(IMG:http://metalarea.org/images/spectrogram/2021_Feb/5c9a40aac7a8091c979687bbe4da26d8.png)
Input File: 03. Hymn II - Tormentor.mp3
Channels : 2
Sample Rate : 44100
Precision : 16-bit
Duration : 00:10:12.84 = 27026244 samples = 45963 CDDA sectors
File Size : 24.6M
Bit Rate : 321k
Sample Encoding: MPEG audio (layer I, II or III)
Comments :
Title=Hymn II - Tormentor
Artist=Spire
Album=Temple of Khronos
Tracknumber=03/07
Year=2021
Genre=Black Metal

Register


Go to the top of the page
  Insert nick Quick quote
+Quote Post
 
Start new topic
Replies (1 - 3)
post Feb 20 2021, 10:51:34
Post #2

Маньяк
**********
Group: Металариец
Posts: 1,244
Releases: 37
From: великий город Питер
On Forums: 15 years 2 months
Thanks: 2089 time(s)
Russian Federation




Go to the top of the page
  Insert nick Quick quote
+Quote Post
post Feb 21 2021, 06:52:16
Post #3
BAN
Banned till
Mar 16 2021, 05:11:44



прошлая тема была погружающей, а тут ничего у них не вышло.
диссонансы избитые, хоралы codeвские, да ну нафиг.
Go to the top of the page
  Insert nick Quick quote
+Quote Post
post Feb 23 2021, 03:10:51
Post #4

aggresive exumator!
**********
Group: Металариец
Posts: 1,323
Releases: 0
On Forums: 9 years 5 months
Thanks: 44 time(s)
Unknown


other server please
Go to the top of the page
  Insert nick Quick quote
+Quote Post

Reply to this topicStart new topic
2 User(s) are reading this topic (2 Guests and 0 Anonymous Users)
0 Members:

 



- Lo-Fi Version Support form
Copyrights and abuse reports form
Time is now: 5th March 2021 - 02:43:01