Welcome Guest ( Log In | Register )

> Releases Upload / Добавление релизов

Добавить релиз тут / Click here to add release
Рекомендованные обменники / Recommended file shares

> Hysterorrhexis - Maggots Infest The Limb (2021), Brutal Death Metal
post Feb 20 2021, 00:40:28
Post #1

Правь статус, ####!111
**************
Group: Металариец
Posts: 25,808
Releases: 18480
From: Г.Харьков
On Forums: 8 years 11 months
Thanks: 365087 time(s)
Unknown


(IMG:https://metalarea.org/images/audiocovers/2021_Feb/acov_tid347586_thumb.jpg)

*Artist: Hysterorrhexis
*Album: Maggots Infest The Limb
*Year: 2021
*Genre: Brutal Death Metal
*Country: Indonesia (IMG:https://metalarea.org/forum/style_images/flags/Indonesia.png)
*Format: mp3@CBR320kbps
*Size: 52MB

Tracklist:
1. Decapitated, Disemboweled 02:49
2. Innards Disclosed 02:26
3. Gonorrhoea 02:39
4. Hysterorrhexis 02:35
5. Leprosy 02:21
6. Thrombosed Hemorrhoids 03:20
7. Noma 03:21
8. SARS-CoV-2 02:27
9. Rarely Cutaneous Myiasis 03:00
******************************
Total playing time: 24:58



Extended info
Frando Bass
Andre Drums
Deff Guitars
Cepit Vocals


Technical info
(IMG:https://metalarea.org/images/spectrogram/2021_Feb/b3cba5519e3f34e3c19ce6e5c563ad28.png)
Input File: 07. Noma.mp3
Channels : 2
Sample Rate : 44100
Precision : 16-bit
Duration : 00:03:23.60 = 8978760 samples = 15270 CDDA sectors
File Size : 8.36M
Bit Rate : 329k
Sample Encoding: MPEG audio (layer I, II or III)
Comments :
Title=Noma
Artist=Hysterorrhexis
Album=Maggots Infest The Limb
Tracknumber=7
Year=2021
Genre=Brutal Death Metal



Register


Go to the top of the page
  Insert nick Quick quote
+Quote Post
 
Start new topic
Replies (1 - 2)
post Feb 21 2021, 11:30:29
Post #2

Добрейшей души Мегаманьяк
***********
Group: Металариец
Posts: 1,839
Releases: 0
From: Bashkortostan, Өфө
On Forums: 13 years 2 months
Thanks: 890 time(s)
Russian Federation


Вот у таких ансамблей мне всегда не нравится невнятная и невыразительная подача голоса. Можно же сочетать то, что представлено тут, и какой-нидь хороший рык и визг. Однообразный хрюк вот прям выбешивает.
Go to the top of the page
  Insert nick Quick quote
+Quote Post
post Feb 21 2021, 22:35:20
Post #3

Два Литра
**
Group: Завсегдатай
Posts: 111
Releases: 5
On Forums: 7 years 2 months
Thanks: 124 time(s)
Serbia


enmity воршип
Go to the top of the page
  Insert nick Quick quote
+Quote Post

Reply to this topicStart new topic
1 User(s) are reading this topic (1 Guests and 0 Anonymous Users)
0 Members:

 



- Lo-Fi Version Support form
Copyrights and abuse reports form
Time is now: 21st April 2021 - 15:28:57