Welcome Guest ( Log In | Register )

> И неформату есть предел.

Рэп/хип-хоп/шансон/поп удаляются. Для них есть свои порталы.

> Blackweald - 666 Minutes In Hell (2021), Dark Ambient
post Feb 20 2021, 18:39:22
Post #1

Четыре Литра
****
Group: Металариец
Posts: 301
Releases: 180
On Forums: 12 years 2 weeks
Thanks: 2032 time(s)
Russian Federation


(IMG:https://metalarea.org/images/audiocovers/2021_Feb/acov_tid347609_thumb.jpg)

*Artist: Blackweald
*Album: 666 Minutes In Hell
*Year: 2021
*Genre: Dark Ambient
*Country: Hungary (IMG:https://metalarea.org/forum/style_images/flags/Hungary.png)
*Format: mp3@CBR320kbps
*Size: 1467MB

Tracklist:
01. Old, Old Death 06:04
02. A Cold Funeral 05:57
03. Coffin Snatcher 16:12
04. The Iron Walls Of Dis 16:58
05. View From Megiddo (1) 03:09
06. Into The Bottomless Pit 23:32
07. Floods And Whirlwinds Of Tempestuous Fire / Antiearth 10:33
08. Rot 06:10
09. Why Hidest Thou Thy Face From Me? / Eerily Howling Crypts 36:22
10. Angela, Dearest Of The Shadows 12:30
11. Oppression 34:07
12. Drown In Styx 03:19
13. An Ancient Draining Room 63:32
14. Wrath Harvest 06:36
15. Sacrifice And Worms 39:24
16. Six-Horse Of Misery 05:11
17. Nonbeing 08:30
18. View From Megiddo (2) 09:26
19. Shadowed By Monstrous Wings 20:53
20. Glimpse Of Arriens 10:09
21. Ceaseless Catacombs 21:07
22. A Long Robe, A Scythe And A Globe 04:34
23. The Clockwork Of Flesh Turns Backwards 24:32
24. As One Great Furnace, Flamed 31:33
25. Hell's Gloomy Monotony 03:15
26. Bull Of Hell 16:57
27. Nonexistence 16:04
28. Pape Satan, Pape Satan Aleppe 16:04
29. He Who Dissolves The Bones 16:07
30. Buried By Time And Dust 04:17
31. 616 09:54
32. Vége a Világnak 07:05
33. View From Megiddo (3) 09:34
34. Vexilla Regis Prodeunt Inferni 49:00
35. As I Gaze Into The Darkness I Hear The Thundering Hoofs Approaching / Dragged Into The Maelstrom / The Fall / Eternity Opens 108:49
******************************
Total playing time: 11:17:24



Technical info
(IMG:https://metalarea.org/images/spectrogram/2021_Feb/85ea5f831ce26a546718dac090713610.png)
Input File: 01 - Old, Old Death.mp3
Channels : 2
Sample Rate : 44100
Precision : 16-bit
Duration : 00:06:05.06 = 16099058 samples = 27379.4 CDDA sectors
File Size : 14.7M
Bit Rate : 322k
Sample Encoding: MPEG audio (layer I, II or III)
Comments :
Title=Old, Old Death
Artist=BLACKWEALD
Album=666 Minutes In Hell
Tracknumber=1
Year=2021-11-01
Discnumber=1



Register


Go to the top of the page
  Insert nick Quick quote
+Quote Post
 
Start new topic
Replies (1 - 4)
post Feb 21 2021, 13:36:17
Post #2

Два Литра
**
Group: Завсегдатай
Posts: 128
Releases: 6
On Forums: 6 years 3 months
Thanks: 256 time(s)
Russian Federation


Не хватает некоторых песен при распаковке архивов получается 35 а не 40.
Закиньте недостающие пожалста треки!!!
Go to the top of the page
  Insert nick Quick quote
+Quote Post
post Feb 21 2021, 16:09:46
Post #3

Четыре Литра
****
Group: Металариец
Posts: 301
Releases: 180
On Forums: 12 years 2 weeks
Thanks: 2032 time(s)
Russian Federation


QUOTE(gnosiis @ Feb 21 2021, 16:36:17) *
Не хватает некоторых песен при распаковке архивов получается 35 а не 40.
Закиньте недостающие пожалста треки!!!


Track list fixed.
Go to the top of the page
  Insert nick Quick quote
+Quote Post
post Feb 21 2021, 19:05:07
Post #4

Group: Дух
Posts: 3
Releases: 0
On Forums: 9 years 1 month
Thanks: 7 time(s)
Hungary


Hey guys! BlackWeald here!

Whether the tracklist is 35 or 40 tracks depends where the album was ripped from.

The original version (on bandcamp) is 40 tracks. However, due to streaming services limitation on the number of tracks an album can has, I had to combine a few tracks for the streaming version, making that 35 tracks long. Both versions are 666 minutes long and contain all the music.

Cheers!


Go to the top of the page
  Insert nick Quick quote
+Quote Post
post Feb 22 2021, 07:19:41
Post #5

Два Литра
**
Group: Завсегдатай
Posts: 128
Releases: 6
On Forums: 6 years 3 months
Thanks: 256 time(s)
Russian Federation


Огромное спасибо за разъяснения!
Go to the top of the page
  Insert nick Quick quote
+Quote Post

Reply to this topicStart new topic
1 User(s) are reading this topic (1 Guests and 0 Anonymous Users)
0 Members:

 



- Lo-Fi Version Support form
Copyrights and abuse reports form
Time is now: 5th March 2021 - 19:56:10