Welcome Guest ( Log In | Register )

> Releases Upload / Добавление релизов

Добавить релиз тут / Click here to add release
Рекомендованные обменники / Recommended file shares

> Serpent Dweller - Serpent Dweller [demo] (2021), Black Metal
post Feb 21 2021, 14:45:45
Post #1

Правь статус, ####!616
**************
Group: Металариец
Posts: 5,875
Releases: 4390
From: 55°35’N 38°08’E
On Forums: 12 years 7 months
Thanks: 81514 time(s)
Unknown


(IMG:https://metalarea.org/images/audiocovers/2021_Feb/acov_tid347651_thumb.jpg)

*Artist: Serpent Dweller
*Album: Serpent Dweller [demo]
*Year: 2021
*Genre: Black Metal
*Country: United States (IMG:https://metalarea.org/forum/style_images/flags/United%20States.png)
*Format: mp3@CBR320kbps
*Size: 46MB

Tracklist:
1.Ego Unraveled 03:15
2.Ophidian Descent 03:58
3.Ravaged in Lower Planes 02:52
4.Floating in Lucid Emptiness 05:47
5.Transmutation of the Self 05:09
******************************
Total playing time: 21:01



Technical info
(IMG:https://metalarea.org/images/spectrogram/2021_Feb/aeaf326a1ef6ab2f9ec514527c0c5793.png)
Input File: 02 Ophidian Descent.mp3
Channels : 2
Sample Rate : 44100
Precision : 16-bit
Duration : 00:03:58.46 = 10516174 samples = 17884.6 CDDA sectors
File Size : 9.65M
Bit Rate : 324k
Sample Encoding: MPEG audio (layer I, II or III)
Comments :
Title=Ophidian Descent
Artist=Serpent Dweller
Album=Serpent Dweller
Tracknumber=2
Year=2021
Genre=Black Metal



Register


Go to the top of the page
  Insert nick Quick quote
+Quote Post
 
Start new topic
Replies (1 - 1)
post Feb 23 2021, 20:59:59
Post #2

Group: Дух
Posts: 1
Releases: 0
From: Corona, CA
On Forums: 4 months 3 weeks
Thanks: 1 time(s)
United States


I write lyrics and do the vocals in this band. Cheers and thank you for sharing!


Thanks:
(1) sacrut,
Go to the top of the page
  Insert nick Quick quote
+Quote Post

Reply to this topicStart new topic
1 User(s) are reading this topic (1 Guests and 0 Anonymous Users)
0 Members:

 



- Lo-Fi Version Support form
Copyrights and abuse reports form
Time is now: 5th March 2021 - 02:12:15