Welcome Guest ( Log In | Register )

> Releases Upload / Добавление релизов

Добавить релиз тут / Click here to add release
Рекомендованные обменники / Recommended file shares

 
Reply to this topicStart new topic
> Murmúrio - Memento Mori Necrosóphico [demo] (2014), Raw Black Metal
post Feb 21 2021, 15:17:44
Post #1

Malum dominus omnium
***
Group: Завсегдатай
Posts: 233
Releases: 154
On Forums: 1 year 1 week
Thanks: 3030 time(s)
Vatican City


(IMG:https://metalarea.org/images/audiocovers/2021_Feb/acov_tid347652_thumb.jpg)

*Artist: Murmúrio
*Album: Memento Mori Necrosóphico [demo]
*Year: 2014
*Genre: Raw Black Metal
*Country: Portugal (IMG:https://metalarea.org/forum/style_images/flags/Portugal.png)
*Format: mp3@CBR320kbps
*Size: 43MB

Tracklist:
1. ? 02:53
2. Caveira 06:39
3. Prece 05:18
4. O Coveiro 03:29
******************************
Total playing time: 18:19

Metal Archives
(IMG:https://metalarea.org/images/youtube.png)

Technical info
(IMG:https://metalarea.org/images/spectrogram/2021_Feb/ef958401eb60e977a7d4ff78dd49a608.png)
Input File: Murmúrio - O Coveiro.mp3
Channels : 2
Sample Rate : 44100
Precision : 16-bit
Duration : 00:03:29.44 = 9236084 samples = 15707.6 CDDA sectors
File Size : 8.38M
Bit Rate : 320k
Sample Encoding: MPEG audio (layer I, II or III)
Comments :
Title=O Coveiro
Artist=Murmúrio
Album=Memento Mori Necrosóphico
Tracknumber=4
Year=2014
Genre=Black Metal



Register


Go to the top of the page
  Insert nick Quick quote
+Quote Post

Reply to this topicStart new topic
1 User(s) are reading this topic (1 Guests and 0 Anonymous Users)
0 Members:

 



- Lo-Fi Version Support form
Copyrights and abuse reports form
Time is now: 5th March 2021 - 20:01:26