Welcome Guest ( Log In | Register )

> Releases Upload / Добавление релизов

Добавить релиз тут / Click here to add release
Рекомендованные обменники / Recommended file shares

> Void Commander - River Lord (2021), Psychedelic Stoner/Doom Metal/Rock
post Feb 21 2021, 16:12:01
Post #1

Правь статус, ####!111
**************
Group: Металариец
Posts: 3,740
Releases: 3406
From: Одесса
On Forums: 12 years 9 months
Thanks: 36074 time(s)
Ukraine


(IMG:http://metalarea.org/images/audiocovers/2021_Feb/acov_tid347653_thumb.jpg)

*Artist: Void Commander
*Album: River Lord
*Year: 2021
*Genre: Psychedelic Stoner/Doom Metal/Rock
*Country: Sweden (IMG:http://metalarea.org/forum/style_images/flags/Sweden.png)
*Format: mp3@CBR320kbps
*Size: 89MB

Tracklist:
1. River Lord 06:00
2. Stoner Eyes 05:57
3. Worship Midnight 02:54
4. AGN 06:15
5. Fucked Up 05:25
6. I'm Drowning 05:08
7. Shroom Bloody Shroom 05:19
******************************
Total playing time: 36:58



Extended info
Line - up:

Jimmy J - Drums
Bobby K - Guitars, Vocals
Linus O - Bass

(IMG:http://metalarea.org/forum/uploads/av-22512.jpg)

(IMG:https://f4.bcbits.com/img/0020820881_10.jpg)


Technical info
(IMG:http://metalarea.org/images/spectrogram/2021_Feb/e6f8d93f9a83d986fe3fbb2e1adea10a.png)
Input File: 07. Shroom Bloody Shroom.mp3
Channels : 2
Sample Rate : 44100
Precision : 16-bit
Duration : 00:05:19.81 = 14103665 samples = 23985.8 CDDA sectors
File Size : 12.8M
Bit Rate : 321k
Sample Encoding: MPEG audio (layer I, II or III)
Comments :
Title=Shroom Bloody Shroom
Artist=Void Commander
Album=River Lord
Tracknumber=7
Year=2021
Genre=Psychedelic Stoner/Doom Metal/Rock



Register


Go to the top of the page
  Insert nick Quick quote
+Quote Post
 
Start new topic
Replies (1 - 2)
post Feb 22 2021, 05:33:14
Post #2

Литр
*
Group: Подсевший
Posts: 78
Releases: 30
On Forums: 5 months 2 weeks
Thanks: 317 time(s)
Unknown


Thanks !!! (IMG:style_emoticons/default/25.gif) (IMG:style_emoticons/default/9.gif)
Go to the top of the page
  Insert nick Quick quote
+Quote Post
post Feb 23 2021, 12:25:18
Post #3

Правь статус, ####!111
**************
Group: Металариец
Posts: 48,320
Releases: 785
On Forums: 11 years 9 months
Thanks: 42096 time(s)
Russian Federation


Дум рок как дум рок с вокалом под Оззи, такого было уже видимо-невидимо...
Go to the top of the page
  Insert nick Quick quote
+Quote Post

Reply to this topicStart new topic
1 User(s) are reading this topic (1 Guests and 0 Anonymous Users)
0 Members:

 



- Lo-Fi Version Support form
Copyrights and abuse reports form
Time is now: 5th March 2021 - 02:23:59