Welcome Guest ( Log In | Register )

> Releases Upload / Добавление релизов

Добавить релиз тут / Click here to add release
Рекомендованные обменники / Recommended file shares

 
Reply to this topicStart new topic
> Ruah - Wind [demo] (2021), Atmospheric Black Metal
post Feb 21 2021, 17:47:31
Post #1

Правь статус, ####!111
**************
Group: Металариец
Posts: 3,899
Releases: 3561
From: Одесса
On Forums: 12 years 10 months
Thanks: 38041 time(s)
Ukraine


(IMG:http://metalarea.org/images/audiocovers/2021_Feb/acov_tid347657_thumb.jpg)

*Artist: Ruah
*Album: Wind [demo]
*Year: 2021
*Genre: Atmospheric Black Metal
*Country: United States (IMG:http://metalarea.org/forum/style_images/flags/United%20States.png)
*Format: mp3@CBR320kbps
*Size: 86MB

Tracklist:
1. Before the First Dawn 04:09
2. Wind 14:26
3. Homewards 06:10
4. ...and While I Was Still Mourning, the Gates of Eternity Were Shattered 00:32
5. Wind (Demo) 11:50
******************************
Total playing time: 37:07



Technical info
(IMG:http://metalarea.org/images/spectrogram/2021_Feb/8f5feee2403b5750e4d30c52adafa732.png)
Input File: 01. Before the First Dawn.mp3
Channels : 2
Sample Rate : 44100
Precision : 16-bit
Duration : 00:04:09.75 = 11013843 samples = 18731 CDDA sectors
File Size : 9.99M
Bit Rate : 320k
Sample Encoding: MPEG audio (layer I, II or III)
Comments :
Title=Before the First Dawn
Artist=Ruah
Album=Wind (Demo)
Tracknumber=1
Year=2021
Genre=Atmospheric Black Metal



Register


Go to the top of the page
  Insert nick Quick quote
+Quote Post

Reply to this topicStart new topic
1 User(s) are reading this topic (1 Guests and 0 Anonymous Users)
0 Members:

 



- Lo-Fi Version Support form
Copyrights and abuse reports form
Time is now: 21st April 2021 - 15:59:51