Welcome Guest ( Log In | Register )

> Releases Upload / Добавление релизов

Добавить релиз тут / Click here to add release
Рекомендованные обменники / Recommended file shares

> Aarkanne - De Profundis [demo] (2020), Raw Black Metal
post Feb 21 2021, 18:17:37
Post #1

Правь статус, ####!616
**************
Group: Металариец
Posts: 5,885
Releases: 4390
From: 55°35’N 38°08’E
On Forums: 12 years 7 months
Thanks: 81715 time(s)
Unknown


(IMG:https://metalarea.org/images/audiocovers/2021_Feb/acov_tid347663_thumb.jpg)

*Artist: Aarkanne
*Album: De Profundis [demo]
*Year: 2020
*Genre: Raw Black Metal
*Country: Chile (IMG:https://metalarea.org/forum/style_images/flags/Chile.png)
*Format: mp3@CBR320kbps
*Size: 33MB

Tracklist:
1.De Profundis I 04:51
2.De Profundis II 05:06
3.De Profundis III 03:57
******************************
Total playing time: 13:54



Technical info
(IMG:https://metalarea.org/images/spectrogram/2021_Feb/f2f1c6cd1ce19145fc3445f531a0493f.png)
Input File: 01 De Profundis I.mp3
Channels : 2
Sample Rate : 44100
Precision : 16-bit
Duration : 00:04:51.68 = 12862912 samples = 21875.7 CDDA sectors
File Size : 11.8M
Bit Rate : 322k
Sample Encoding: MPEG audio (layer I, II or III)
Comments :
Title=De Profundis I
Artist=Aarkanne
Album=De Profundis
Tracknumber=1
Year=2020
Genre=Black Metal



Register


Go to the top of the page
  Insert nick Quick quote
+Quote Post
 
Start new topic
Replies (1 - 1)
post Yesterday, 08:44:41
Post #2

добрый мизантроп
**************
Group: Металариец
Posts: 2,064
Releases: 1
From: Минск
On Forums: 10 years 3 months
Thanks: 992 time(s)
Madagascar


Fine raw black, listening 3rd time in a row, sounds like ~8.6/10 (IMG:style_emoticons/default/true_black.gif) (IMG:style_emoticons/default/true_black.gif)
Go to the top of the page
  Insert nick Quick quote
+Quote Post

Reply to this topicStart new topic
1 User(s) are reading this topic (1 Guests and 0 Anonymous Users)
0 Members:

 



- Lo-Fi Version Support form
Copyrights and abuse reports form
Time is now: 5th March 2021 - 21:21:46