Welcome Guest ( Log In | Register )

> Releases Upload / Добавление релизов

Добавить релиз тут / Click here to add release
Рекомендованные обменники / Recommended file shares

> Ravenoir - The Darkest Flame Of Eternal Blasphemy (2021), Melodic Death Metal
post Feb 21 2021, 18:57:50
Post #1

Правь статус, ####!111
**************
Group: Металариец
Posts: 25,200
Releases: 17941
From: Г.Харьков
On Forums: 8 years 9 months
Thanks: 350987 time(s)
Unknown


(IMG:https://metalarea.org/images/audiocovers/2021_Feb/acov_tid347665_thumb.jpg)

*Artist: Ravenoir
*Album: The Darkest Flame Of Eternal Blasphemy
*Year: 2021
*Genre: Melodic Death Metal
*Country: Czech Republic (IMG:https://metalarea.org/forum/style_images/flags/Czech%20Republic.png)
*Format: mp3@CBR320kbps
*Size: 92MB

Tracklist:
01. Nocturnal Initiation (Proloque)
02. Ravenoir
03. The Darkest Flame of Eternal Blasphemy
04. In the Sign of the Horns
05. From the Dead Shadows of the Void to Eternity (Intermezzo)
06. Blood Pact
07. Dark Vision
08. Hellfire's Icon
09. Alter Ego
******************************
Total playing time: 38:18



Extended info
FLAC Rip
Alesh AD - All electric and acoustic guitars, vocals and keyboards
Igor Hubík - Bass
Patrik Sas - Drums
Jakub Önslaughter Maděryč - Guitar


Technical info
(IMG:https://metalarea.org/images/spectrogram/2021_Feb/d47117c5ebe5c0d534a85d97c655f579.png)
Input File: 09 Alter Ego.mp3
Channels : 2
Sample Rate : 44100
Precision : 16-bit
Duration : 00:08:38.87 = 22882255 samples = 38915.4 CDDA sectors
File Size : 21.3M
Bit Rate : 328k
Sample Encoding: MPEG audio (layer I, II or III)
Comments :
Title=Alter Ego
Artist=RAVENOIR
Album=The Darkest Flame of Eternal Blasphemy
Tracknumber=9/9
Year=2021-21-20
Genre=Metal
Discnumber=1/1



Register


Go to the top of the page
  Insert nick Quick quote
+Quote Post
 
Start new topic
Replies (1 - 3)
post Feb 22 2021, 07:52:10
Post #2

MDM-Thrash Metal
**************
Group: Металариец
Posts: 10,193
Releases: 1175
From: Одесса
On Forums: 13 years 6 months
Thanks: 28910 time(s)
Ukraine


Очень достойная и качественная работа!
Только вот стилистически это не совсем МДМ, скорее мелодичный Death Metal на стыке с Мелодетом. Но альбом очень толковый. (IMG:style_emoticons/default/20.gif)


Thanks:
Go to the top of the page
  Insert nick Quick quote
+Quote Post
post Feb 24 2021, 08:31:10
Post #3

Ъ
**************
Group: Металариец
Posts: 10,477
Releases: 9
On Forums: 12 years 1 month
Thanks: 2149 time(s)
Sweden


На раз послушать норм. Особо не за что зацепиться, но и не плохо. Треш в теги обязателен.
Go to the top of the page
  Insert nick Quick quote
+Quote Post
post Feb 26 2021, 08:02:57
Post #4

hearer & reader
**************
Group: Металариец
Posts: 9,475
Releases: 169
From: Moscow
On Forums: 13 years 5 months
Thanks: 10368 time(s)
Russian Federation


https://music.yandex.ru/album/13990701
Go to the top of the page
  Insert nick Quick quote
+Quote Post

Reply to this topicStart new topic
1 User(s) are reading this topic (1 Guests and 0 Anonymous Users)
0 Members:

 



- Lo-Fi Version Support form
Copyrights and abuse reports form
Time is now: 5th March 2021 - 01:02:14