Welcome Guest ( Log In | Register )

> Releases Upload / Добавление релизов

Добавить релиз тут / Click here to add release
Рекомендованные обменники / Recommended file shares

> Phosgene - Phosgene [ep] (2020), Brutal Death Metal
post Feb 21 2021, 19:55:12
Post #1

Правь статус, ####!111
**************
Group: Металариец
Posts: 25,200
Releases: 17949
From: Г.Харьков
On Forums: 8 years 9 months
Thanks: 350989 time(s)
Unknown


(IMG:https://metalarea.org/images/audiocovers/2021_Feb/acov_tid347667_thumb.jpg)

*Artist: Phosgene
*Album: Phosgene [ep]
*Year: 2020
*Genre: Brutal Death Metal
*Country: Chile (IMG:https://metalarea.org/forum/style_images/flags/Chile.png)
*Format: mp3@CBR320kbps
*Size: 47MB

Tracklist:
1. Cortinas de humo 01:12
2. Phosgene Project 03:34
3. The Life Fall into Black Hands 03:35
4. AiriS9103 04:02
5. Dias de sufrimiento 03:13
6. Asesinos ocultos 03:34
******************************
Total playing time: 19:10




Extended info
Juan Esteban Luengo Bass, Vocals (backing)
See also: ex-Ritual of Flesh
Sebastian Garcia Drums
See also: Human Behavior, ex-Ritual of Flesh
Patricio Díaz Guitars
See also: ex-Demonios, ex-Homicide
Jorge Merino Vocals
See also: Cadaverous Incarnate, Extracorporeal Disgorge, ex-Unearthing Mass Grave, ex-Cuero Chancho
Gabriel Pincheira Guitars (2020-present)
See also: Alinfierno, Homicide


Technical info
(IMG:https://metalarea.org/images/spectrogram/2021_Feb/06c3ff2e095ab99afbd6ad25be9477ea.png)
Input File: 04 Aris9102.mp3
Channels : 2
Sample Rate : 44100
Precision : 16-bit
Duration : 00:04:02.14 = 10678462 samples = 18160.6 CDDA sectors
File Size : 10.3M
Bit Rate : 341k
Sample Encoding: MPEG audio (layer I, II or III)
Comments :
Title=Aris9102
Artist=Phosgene
Album=Phosgene
Tracknumber=4/6
Year=2020-20-20
Genre=Metal
Discnumber=1/1



Register


Go to the top of the page
  Insert nick Quick quote
+Quote Post
 
Start new topic
Replies (1 - 1)
post Feb 22 2021, 09:10:42
Post #2

Восемь Литров
********
Group: Металариец
Posts: 888
Releases: 1
From: APATIN, SERBIA, АПАТИН, СЕРБИЯ
On Forums: 13 years 4 months
Thanks: 1837 time(s)



Flac

Register


Thanks:
(1) Olethros,
Go to the top of the page
  Insert nick Quick quote
+Quote Post

Reply to this topicStart new topic
1 User(s) are reading this topic (1 Guests and 0 Anonymous Users)
0 Members:

 



- Lo-Fi Version Support form
Copyrights and abuse reports form
Time is now: 5th March 2021 - 01:20:21