Welcome Guest ( Log In | Register )

> Releases Upload / Добавление релизов

Добавить релиз тут / Click here to add release
Рекомендованные обменники / Recommended file shares

 
Reply to this topicStart new topic
> Funeral Art - Altare Mortuum [compilation] (2021), Ambient Black/Funeral Doom Metal (D)
post Feb 21 2021, 20:05:45
Post #1

Правь статус, ####!111
**************
Group: Металариец
Posts: 3,746
Releases: 3406
From: Одесса
On Forums: 12 years 9 months
Thanks: 36104 time(s)
Ukraine


(IMG:http://metalarea.org/images/audiocovers/2021_Feb/acov_tid347668_thumb.jpg)

*Artist: Funeral Art
*Album: Altare Mortuum [compilation]
*Year: 2021
*Genre: Ambient Black/Funeral Doom Metal
*Country: Guatemala (IMG:http://metalarea.org/forum/style_images/flags/Guatemala.png)
*Format: mp3@CBR320kbps
*Size: 258MB

Tracklist:
1. A New Power Is Rising (Summoning) 03:54
2. Across the World of Wonders (Mortiis) 06:29
3. Don't Go (Happy Days) 05:31
4. Dying Brokenhearted (Empyrium) 05:28
5. Falling Snow (Agalloch) 09:37
6. Fog Rolls Down the Slopes (Deafest) 06:04
7. Glittertind (Dimmu Borgir) 05:06
8. Her Ghost Haunts These Walls (Nocturnal Depression) 10:37
9. Long Lost to Where No Pathway Goes (Summoning) 07:21
10. Nothing Else Matters (Metallica) 06:36
11. One Last Goodbye (Anathema) 05:27
12. Ring of Gold (Bathory) 05:07
13. Solitude and Despair (Nocturnal Depression) 07:20
14. Springtime Depression (Forgotten Tomb) 05:14
15. Suici.De.Pression (Thy Light) 03:38
16. The Failure Epiphany (Draconian) 06:17
17. The First Beauty (Lustre) 06:08
18. Walker of Dissonant Worlds (Xasthur) 06:41
******************************
Total playing time: 1:52:35



Extended info
FLAC RIP

Line - up:

Lord Marbas - Vocals, All instruments (ex-Opera Macabra)
M. Bitia Kosemet - Vocals (Kosemet)


Technical info
(IMG:http://metalarea.org/images/spectrogram/2021_Feb/5a365b5d56bff67591172a417931bbe1.png)
Input File: 03. Don`t Go (Happy Days).mp3
Channels : 2
Sample Rate : 44100
Precision : 16-bit
Duration : 00:05:31.78 = 14631322 samples = 24883.2 CDDA sectors
File Size : 13.3M
Bit Rate : 320k
Sample Encoding: MPEG audio (layer I, II or III)
Comments :
Title=Don`t Go (Happy Days)
Artist=Funeral Art
Album=Altare Mortuum (Compilation)
Tracknumber=3
Year=2021
Genre=Ambient Black/Funeral Doom Metal



Register


Go to the top of the page
  Insert nick Quick quote
+Quote Post

Reply to this topicStart new topic
1 User(s) are reading this topic (1 Guests and 0 Anonymous Users)
0 Members:

 



- Lo-Fi Version Support form
Copyrights and abuse reports form
Time is now: 5th March 2021 - 20:52:37