Welcome Guest ( Log In | Register )

> Releases Upload / Добавление релизов

Добавить релиз тут / Click here to add release
Рекомендованные обменники / Recommended file shares

 
Reply to this topicStart new topic
> Obscura Religio - Legacy (2021), Melodic Black/Gothic Metal
post Feb 21 2021, 20:14:54
Post #1

Правь статус, ####!111
**************
Group: Металариец
Posts: 25,219
Releases: 17959
From: Г.Харьков
On Forums: 8 years 9 months
Thanks: 351496 time(s)
Unknown


(IMG:https://metalarea.org/images/audiocovers/2021_Feb/acov_tid347669_thumb.jpg)

*Artist: Obscura Religio
*Album: Legacy
*Year: 2021
*Genre: Melodic Black/Gothic Metal
*Country: Germany (IMG:https://metalarea.org/forum/style_images/flags/Germany.png)
*Format: mp3@CBR320kbps
*Size: 139MB

Tracklist:
1. Legacy Intro 02:08
2. Göttervorsehung 04:47
3. Zur Frage des Seins 06:00
4. Darkness in Heaven 06:11
5. Hexenhammer 06:20
6. Mein Altes Herz 05:00
7. Die Art zu Leben 05:23
8. Alhazreds Zorn 05:18
9. Staub und Knochen 05:57
10. Winterkälte 06:33
11. Square Hammer (Ghost cover) 03:57
******************************
Total playing time: 57:34



Extended info
Sidhar Keyboards (2006-2014)
See also: ex-Kosmopyria
Twerc Bass (2009-2014)
See also: Munarheim
Wolf Drums (2009-2014)
See also: Munarheim, ex-Kosmopyria
Vingar Guitars (rhythm) (2009-2014)
See also: Munarheim, ex-Kosmopyria
Nemesis Vocals (2010-2014)
See also: ex-Grand Failure, ex-Kosmopyria


Technical info
(IMG:https://metalarea.org/images/spectrogram/2021_Feb/541a2e71448b27bf63f6e32d976b77c3.png)
Input File: 07 Die Art Zu Leben.mp3
Channels : 2
Sample Rate : 44100
Precision : 16-bit
Duration : 00:05:23.07 = 14247563 samples = 24230.5 CDDA sectors
File Size : 13.6M
Bit Rate : 337k
Sample Encoding: MPEG audio (layer I, II or III)
Comments :
Title=Die Art Zu Leben
Artist=Obscura Religio
Album=Legacy
Tracknumber=7/11
Year=2021-21-20
Genre=Metal
Discnumber=1/1



Register


Go to the top of the page
  Insert nick Quick quote
+Quote Post

Reply to this topicStart new topic
1 User(s) are reading this topic (1 Guests and 0 Anonymous Users)
0 Members:

 



- Lo-Fi Version Support form
Copyrights and abuse reports form
Time is now: 5th March 2021 - 20:08:40