Welcome Guest ( Log In | Register )

> Releases Upload / Добавление релизов

Добавить релиз тут / Click here to add release
Рекомендованные обменники / Recommended file shares

> Dubak - The Hour Of The Wolf (2021), Black Metal
post Feb 21 2021, 20:51:21
Post #1

Правь статус, ####!616
**************
Group: Металариец
Posts: 5,875
Releases: 4382
From: 55°35’N 38°08’E
On Forums: 12 years 7 months
Thanks: 81508 time(s)
Unknown


(IMG:https://metalarea.org/images/audiocovers/2021_Feb/acov_tid347670_thumb.jpg)

*Artist: Dubak
*Album: The Hour Of The Wolf
*Year: 2021
*Genre: Black Metal
*Country: Russian Federation (IMG:https://metalarea.org/forum/style_images/flags/Russian%20Federation.png)
*Format: mp3@CBR320kbps
*Size: 101MB

Tracklist:
1.Intro 02:30
2.The Hour Of The Wolf 06:29
3.Winds Shall Bear Our Tale 06:31
4.Blizzardhowl 07:35
5.On Snowy Trails 08:56
6.The Forest Guards Forgotten 12:19
******************************
Total playing time: 44:20



Extended info
WV - vocals, acoustic guitar, drums
(Dodmorke, Eres Nod, Howl, Rooforest, Theoroth, Time Heals Nothing, Vhaatreim, Wintaar, Spirit of Night, Wampyric Bloodlust, W, Зимний Дракон)
Kuth - guitars, bass


Technical info
(IMG:https://metalarea.org/images/spectrogram/2021_Feb/ed52cfdd3b76a0d5ef7d5cce11d7faed.png)
Input File: 02 The Hour Of The Wolf.mp3
Channels : 2
Sample Rate : 44100
Precision : 16-bit
Duration : 00:06:29.69 = 17185461 samples = 29227 CDDA sectors
File Size : 15.7M
Bit Rate : 322k
Sample Encoding: MPEG audio (layer I, II or III)
Comments :
Title=The Hour Of The Wolf
Artist=Dubak
Album=The Hour Of The Wolf
Tracknumber=2
Year=2021
Genre=Black Metal



Register


Go to the top of the page
  Insert nick Quick quote
+Quote Post
 
Start new topic
Replies (1 - 3)
post Feb 22 2021, 09:07:56
Post #2

Common dweller of hell
**************
Group: Металариец
Posts: 3,573
Releases: 11
From: Dnipro
On Forums: 12 years 7 months
Thanks: 1380 time(s)
Ukraine


Ну и Dubak на улице, снег и мороз



Thanks:
Go to the top of the page
  Insert nick Quick quote
+Quote Post
post Feb 22 2021, 11:09:23
Post #3

Пять Литров
*****
Group: Металариец
Posts: 432
Releases: 0
From: Ташкент
On Forums: 13 years 4 weeks
Thanks: 133 time(s)
Uzbekistan


Дубак это ещё и охранник на зоне. По любому Россия )))
Go to the top of the page
  Insert nick Quick quote
+Quote Post
post Feb 24 2021, 09:18:36
Post #4

кручу наждак
**************
Group: Металариец
Posts: 4,783
Releases: 103
From: Самара
On Forums: 10 years 9 months
Thanks: 3816 time(s)
Russian Federation


Не слишком удачная попытка сыграть каноничный блэк.
Go to the top of the page
  Insert nick Quick quote
+Quote Post

Reply to this topicStart new topic
1 User(s) are reading this topic (1 Guests and 0 Anonymous Users)
0 Members:

 



- Lo-Fi Version Support form
Copyrights and abuse reports form
Time is now: 5th March 2021 - 01:49:00