Welcome Guest ( Log In | Register )

 
Reply to this topicStart new topic
> Excretory - Last Command Is Here [demo] (1996), Thrash/Death Metal
post Feb 22 2021, 00:17:27
Post #1

Подвал
**************
Group: Металариец
Posts: 15,785
Releases: 9023
From: Far East (Khabarovsk)
On Forums: 12 years 1 month
Thanks: 99836 time(s)
Russian Federation


(IMG:http://metalarea.org/images/audiocovers/2021_Feb/acov_tid347672_thumb.jpg)

*Artist: Excretory
*Album: Last Command Is Here [demo]
*Year: 1996
*Genre: Thrash/Death Metal
*Country: Bosnia and Herzegovina (IMG:http://metalarea.org/forum/style_images/flags/Bosnia%20and%20Herzegovina.png)
*Format: mp3@CBR192kbps
*Size: 20MB

Tracklist:
1. Last Command Is Here 02:55
2. Black Wisdom 03:55
3. In Massacre 02:56
4. This World Harmony 05:41
******************************
Total playing time: 15:27

(IMG:http://metalarea.org/images/youtube.png)




Technical info
(IMG:http://metalarea.org/images/spectrogram/2021_Feb/e79c40e71f33f2b6a0deaedbcb33484b.png)
Input File: 01-Last Command Is Here.mp3
Channels : 2
Sample Rate : 44100
Precision : 16-bit
Duration : 00:02:55.45 = 7737257 samples = 13158.6 CDDA sectors
File Size : 4.21M
Bit Rate : 192k
Sample Encoding: MPEG audio (layer I, II or III)
Comments :
Title=Last Command Is Here
Artist=Excretory
Album=Last Command Is Here (Demo)
Tracknumber=01
Year=1996
Genre=Thrash Metal



Register


Go to the top of the page
  Insert nick Quick quote
+Quote Post

Reply to this topicStart new topic
1 User(s) are reading this topic (1 Guests and 0 Anonymous Users)
0 Members:

 



- Lo-Fi Version Support form
Copyrights and abuse reports form
Time is now: 5th March 2021 - 20:37:01