Welcome Guest ( Log In | Register )

> Releases Upload / Добавление релизов

Добавить релиз тут / Click here to add release
Рекомендованные обменники / Recommended file shares

> Nocturnal Hollow - Triumphantly Evil (2021), Old School Death Metal (D7)
post Feb 22 2021, 00:17:49
Post #1

Правь статус, ####!616
**************
Group: Металариец
Posts: 5,884
Releases: 4390
From: 55°35’N 38°08’E
On Forums: 12 years 7 months
Thanks: 81662 time(s)
Unknown


(IMG:https://metalarea.org/images/audiocovers/2021_Feb/acov_tid347673_thumb.jpg)

*Artist: Nocturnal Hollow
*Album: Triumphantly Evil
*Year: 2021
*Genre: Old School Death Metal
*Country: Venezuela (IMG:https://metalarea.org/forum/style_images/flags/Venezuela.png)
*Format: mp3@CBR320kbps
*Size: 105MB

Tracklist:
1.Baphometh Crown 03:53
2.Bound to the Gore 04:00
3.The Shinning Blaze of Hell 04:51
4.Down to Void 03:53
5.Consumed by the Storm 02:49
6.Through the Haze of Death 03:11
7.Voices comes from the Night 04:12
8.In Rapture of Pain 03:53
9.King of Wrath 03:22
10.Remembrance of a Murder 03:49
11.Necrophiliac (Slayer cover) (Bonus Track) 03:54
******************************
Total playing time: 41:47




Technical info
(IMG:https://metalarea.org/images/spectrogram/2021_Feb/85ff1adc5152440c1648b3517407fb2b.png)
Input File: 01 Baphometh Crown.mp3
Channels : 2
Sample Rate : 44100
Precision : 16-bit
Duration : 00:03:53.92 = 10315696 samples = 17543.7 CDDA sectors
File Size : 9.50M
Bit Rate : 325k
Sample Encoding: MPEG audio (layer I, II or III)
Comments :
Title=Baphometh Crown
Artist=Nocturnal Hollow
Album=Triumphantly Evil
Tracknumber=1
Year=2021
Genre=Death Metal



Register


Go to the top of the page
  Insert nick Quick quote
+Quote Post
 
Start new topic
Replies (1 - 4)
post Feb 22 2021, 09:09:30
Post #2

Восемь Литров
********
Group: Металариец
Posts: 888
Releases: 1
From: APATIN, SERBIA, АПАТИН, СЕРБИЯ
On Forums: 13 years 4 months
Thanks: 1837 time(s)



Flac

Register


Thanks:
Go to the top of the page
  Insert nick Quick quote
+Quote Post
post Feb 22 2021, 17:36:18
Post #3

Common dweller of hell
**************
Group: Металариец
Posts: 3,579
Releases: 11
From: Dnipro
On Forums: 12 years 7 months
Thanks: 1382 time(s)
Ukraine


ЦИТАТА(oathzine @ Feb 22 2021, 10:09:30) *
Flac

Что то на lossless спектрограмма хуже чем на МР_3 (320)(IMG:style_emoticons/default/fear.gif)
Go to the top of the page
  Insert nick Quick quote
+Quote Post
post Feb 22 2021, 20:01:59
Post #4

кручу наждак
**************
Group: Металариец
Posts: 4,783
Releases: 103
From: Самара
On Forums: 10 years 9 months
Thanks: 3817 time(s)
Russian Federation


Утомительная, бесталанная херня.


Thanks:
(1) Brann,
Go to the top of the page
  Insert nick Quick quote
+Quote Post
post Feb 25 2021, 19:25:22
Post #5

hearer & reader
**************
Group: Металариец
Posts: 9,481
Releases: 169
From: Moscow
On Forums: 13 years 5 months
Thanks: 10373 time(s)
Russian Federation


ЦИТАТА(isvili @ Feb 22 2021, 19:36:18) *
Что то на lossless спектрограмма хуже чем на МР_3 (320)(IMG:style_emoticons/default/fear.gif)

Да не, один в один.
Go to the top of the page
  Insert nick Quick quote
+Quote Post

Reply to this topicStart new topic
1 User(s) are reading this topic (1 Guests and 0 Anonymous Users)
0 Members:

 



- Lo-Fi Version Support form
Copyrights and abuse reports form
Time is now: 5th March 2021 - 19:50:16