Welcome Guest ( Log In | Register )

> Releases Upload / Добавление релизов

Добавить релиз тут / Click here to add release
Рекомендованные обменники / Recommended file shares

 
Reply to this topicStart new topic
> Currish - Time For Change [demo] (1993), Heavy/Speed/Thrash Metal
post Feb 22 2021, 00:35:28
Post #1

Подвал
**************
Group: Металариец
Posts: 15,785
Releases: 9023
From: Far East (Khabarovsk)
On Forums: 12 years 1 month
Thanks: 99836 time(s)
Russian Federation


(IMG:http://metalarea.org/images/audiocovers/2021_Feb/acov_tid347674_thumb.jpg)

*Artist: Currish
*Album: Time For Change [demo]
*Year: 1993
*Genre: Heavy/Speed/Thrash Metal
*Country: Netherlands (IMG:http://metalarea.org/forum/style_images/flags/Netherlands.png)
*Format: mp3@CBR320kbps
*Size: 49MB

Tracklist:
1. Wake Up 08:38
2. Endless Harmony 05:33
3. No Answer 07:28
******************************
Total playing time: 21:39

Technical info
(IMG:http://metalarea.org/images/spectrogram/2021_Feb/655bd029ad8a7953a5ba74d60d5314ff.png)
Input File: 02-Endless Harmony.mp3
Channels : 2
Sample Rate : 44100
Precision : 16-bit
Duration : 00:05:33.03 = 14686623 samples = 24977.2 CDDA sectors
File Size : 13.3M
Bit Rate : 320k
Sample Encoding: MPEG audio (layer I, II or III)
Comments :
Title=Endless Harmony
Artist=Currish
Album=Time For Change (Demo)
Tracknumber=02
Year=1993
Genre=Metal



Register


Go to the top of the page
  Insert nick Quick quote
+Quote Post

Reply to this topicStart new topic
1 User(s) are reading this topic (1 Guests and 0 Anonymous Users)
0 Members:

 



- Lo-Fi Version Support form
Copyrights and abuse reports form
Time is now: 5th March 2021 - 20:49:19