Welcome Guest ( Log In | Register )

> Releases Upload / Добавление релизов

Добавить релиз тут / Click here to add release
Рекомендованные обменники / Recommended file shares

 
Reply to this topicStart new topic
> Dreamscape - Changes [demo] (1995), Progressive Metal (D)
post Feb 22 2021, 00:45:23
Post #1

Подвал
**************
Group: Металариец
Posts: 15,785
Releases: 9023
From: Far East (Khabarovsk)
On Forums: 12 years 1 month
Thanks: 99836 time(s)
Russian Federation


(IMG:http://metalarea.org/images/audiocovers/2021_Feb/acov_tid347675_thumb.jpg)

*Artist: Dreamscape
*Album: Changes [demo]
*Year: 1995
*Genre: Progressive Metal
*Country: Germany (IMG:http://metalarea.org/forum/style_images/flags/Germany.png)
*Format: mp3@CBR320kbps
*Size: 63MB

Tracklist:
1. Loneliness 05:43
2. Changes 06:37
3. Day And Night Illusion 07:54
4. It's Not The End 07:12
******************************
Total playing time: 27:26



Technical info
(IMG:http://metalarea.org/images/spectrogram/2021_Feb/af3141e7d72719afd7c9d3b225748f16.png)
Input File: 01-Loneliness.mp3
Channels : 2
Sample Rate : 44100
Precision : 16-bit
Duration : 00:05:43.98 = 15169342 samples = 25798.2 CDDA sectors
File Size : 13.8M
Bit Rate : 320k
Sample Encoding: MPEG audio (layer I, II or III)
Comments :
Title=Loneliness
Artist=Dreamscape
Album=Changes (demo)
Tracknumber=01
Year=1995
Genre=Metal



Register


Go to the top of the page
  Insert nick Quick quote
+Quote Post

Reply to this topicStart new topic
1 User(s) are reading this topic (1 Guests and 0 Anonymous Users)
0 Members:

 



- Lo-Fi Version Support form
Copyrights and abuse reports form
Time is now: 5th March 2021 - 20:04:46