Welcome Guest ( Log In | Register )

> Releases Upload / Добавление релизов

Добавить релиз тут / Click here to add release
Рекомендованные обменники / Recommended file shares

> Performed - Moronia (2021), Old School Thrash Metal
post Feb 22 2021, 02:40:47
Post #1

Правь статус, ####!111
**************
Group: Металариец
Posts: 25,219
Releases: 17959
From: Г.Харьков
On Forums: 8 years 9 months
Thanks: 351520 time(s)
Unknown


(IMG:https://metalarea.org/images/audiocovers/2021_Feb/acov_tid347676_thumb.jpg)

*Artist: Performed
*Album: Moronia
*Year: 2021
*Genre: Old School Thrash Metal
*Country: Slovakia (IMG:https://metalarea.org/forum/style_images/flags/Slovakia.png)
*Format: mp3@CBR320kbps
*Size: 99MB

Tracklist:
1. Good Mood Stealer 05:12
2. War 04:25
3. Mental Leech 04:24
4. Mammonist 05:57
5. Killing Past 05:08
6. Uzzur 07:52
7. Thick Fume of Dependencies 05:56
8. Moronia 04:48
******************************
Total playing time: 43:42




Extended info
Peter Chalupčík Drums
Martin Majdan Guitars, Vocals
Marian Lukáč Bass
Martin Sukenik Guitars



Technical info
(IMG:https://metalarea.org/images/spectrogram/2021_Feb/10d3880efeba0e56d223b3521f10523f.png)
Input File: 07 - Thick Fume of Dependencies.mp3
Channels : 2
Sample Rate : 44100
Precision : 16-bit
Duration : 00:05:56.11 = 15704451 samples = 26708.2 CDDA sectors
File Size : 14.2M
Bit Rate : 320k
Sample Encoding: MPEG audio (layer I, II or III)
Comments :
Title=Thick Fume of Dependencies
Artist=Performed
Album=Moronia
Tracknumber=7
Year=2021
Genre=Thrash Metal



Register


Go to the top of the page
  Insert nick Quick quote
+Quote Post
 
Start new topic
Replies (1 - 3)
post Feb 22 2021, 08:04:57
Post #2

MDM-Thrash Metal
**************
Group: Металариец
Posts: 10,198
Releases: 1175
From: Одесса
On Forums: 13 years 6 months
Thanks: 28918 time(s)
Ukraine


Отличный альбом! Хороший добротный трешак, с отменными и четкими риффами. (IMG:style_emoticons/default/metaler.gif)
Go to the top of the page
  Insert nick Quick quote
+Quote Post
post Feb 22 2021, 09:11:12
Post #3

Common dweller of hell
**************
Group: Металариец
Posts: 3,579
Releases: 11
From: Dnipro
On Forums: 12 years 7 months
Thanks: 1382 time(s)
Ukraine


Местами конкретно попахивает ранним Megadeth
Go to the top of the page
  Insert nick Quick quote
+Quote Post
post Feb 24 2021, 20:07:35
Post #4

21st Century Schizoid Man
**************
Group: Металариец
Posts: 6,734
Releases: 82
From: Moscow
On Forums: 12 years 10 months
Thanks: 5661 time(s)
Russian Federation


Отличный альбом. Бодро, олдскульно. (IMG:style_emoticons/default/20.gif)
Go to the top of the page
  Insert nick Quick quote
+Quote Post

Reply to this topicStart new topic
1 User(s) are reading this topic (1 Guests and 0 Anonymous Users)
0 Members:

 



- Lo-Fi Version Support form
Copyrights and abuse reports form
Time is now: 5th March 2021 - 21:01:53