Welcome Guest ( Log In | Register )

> Releases Upload / Добавление релизов

Добавить релиз тут / Click here to add release
Рекомендованные обменники / Recommended file shares

 
Reply to this topicStart new topic
> Nordheim & Strof - Totes Moos [split] (2020), Atmospheric Black Metal | Atmospheric Black Metal (D8)
post Feb 22 2021, 02:59:44
Post #1

Правь статус, ####!616
**************
Group: Металариец
Posts: 5,885
Releases: 4390
From: 55°35’N 38°08’E
On Forums: 12 years 7 months
Thanks: 81676 time(s)
Unknown


(IMG:https://metalarea.org/images/audiocovers/2021_Feb/acov_tid347677_thumb.jpg)

*Artist: Nordheim & Strof
*Album: Totes Moos [split]
*Year: 2020
*Genre: Atmospheric Black Metal | Atmospheric Black Metal
*Country: Italy (IMG:https://metalarea.org/forum/style_images/flags/Italy.png) | Italy (IMG:https://metalarea.org/forum/style_images/flags/Italy.png)
*Format: mp3@CBR320kbps
*Size: 32MB

Tracklist:
Nordheim:
1.Moos I 06:59
Strof:
2.Moos II 06:31
******************************
Total playing time: 13:30




Technical info
(IMG:https://metalarea.org/images/spectrogram/2021_Feb/00f6cf5152ef2cd47eb0d8f35e0384a8.png)
Input File: 01 Nordheim - Moos I.mp3
Channels : 2
Sample Rate : 48000
Precision : 16-bit
Duration : 00:06:59.12 = 20117520 samples ~ 31433.6 CDDA sectors
File Size : 16.9M
Bit Rate : 322k
Sample Encoding: MPEG audio (layer I, II or III)
Comments :
Title=Moos I
Artist=Nordheim
Album=Totes Moos
Tracknumber=1
Year=2020
Genre=Black Metal



Register


Go to the top of the page
  Insert nick Quick quote
+Quote Post

Reply to this topicStart new topic
1 User(s) are reading this topic (1 Guests and 0 Anonymous Users)
0 Members:

 



- Lo-Fi Version Support form
Copyrights and abuse reports form
Time is now: 5th March 2021 - 20:14:35