Welcome Guest ( Log In | Register )

> Releases Upload / Добавление релизов

Добавить релиз тут / Click here to add release
Рекомендованные обменники / Recommended file shares

 
Reply to this topicStart new topic
> Icon Of Phobos & Katheksis - Primal Death Rites [split] (2020), Black Metal | Black Metal
post Feb 22 2021, 03:29:24
Post #1

Правь статус, ####!616
**************
Group: Металариец
Posts: 5,875
Releases: 4390
From: 55°35’N 38°08’E
On Forums: 12 years 7 months
Thanks: 81517 time(s)
Unknown


(IMG:https://metalarea.org/images/audiocovers/2021_Feb/acov_tid347678_thumb.jpg)

*Artist: Icon Of Phobos & Katheksis
*Album: Primal Death Rites [split]
*Year: 2020
*Genre: Black Metal | Black Metal
*Country: United States (IMG:https://metalarea.org/forum/style_images/flags/United%20States.png) | United States (IMG:https://metalarea.org/forum/style_images/flags/United%20States.png)
*Format: mp3@CBR320kbps
*Size: 31MB

Tracklist:
Icon of Phobos:
1.Detriment and Dominance 06:38
Katheksis:
2.I Am Death 06:50
******************************
Total playing time: 13:28





Technical info
(IMG:https://metalarea.org/images/spectrogram/2021_Feb/0005df5db9419272fbb1f38976aa5f05.png)
Input File: 01 Icon of Phobos - Detriment and Dominance.mp3
Channels : 2
Sample Rate : 48000
Precision : 16-bit
Duration : 00:06:37.13 = 19062288 samples ~ 29784.8 CDDA sectors
File Size : 16.0M
Bit Rate : 323k
Sample Encoding: MPEG audio (layer I, II or III)
Comments :
Title=Detriment and Dominance
Artist=Icon of Phobos
Album=Primal Death Rites
Tracknumber=1
Year=2020
Genre=Black Metal



Register


Go to the top of the page
  Insert nick Quick quote
+Quote Post

Reply to this topicStart new topic
1 User(s) are reading this topic (1 Guests and 0 Anonymous Users)
0 Members:

 



- Lo-Fi Version Support form
Copyrights and abuse reports form
Time is now: 5th March 2021 - 02:37:16