Welcome Guest ( Log In | Register )

> Releases Upload / Добавление релизов

Добавить релиз тут / Click here to add release
Рекомендованные обменники / Recommended file shares

> Galdragon - Taexalon (2021), Black Metal
post Feb 22 2021, 18:50:06
Post #1

Правь статус, ####!111
**************
Group: Металариец
Posts: 25,219
Releases: 17959
From: Г.Харьков
On Forums: 8 years 9 months
Thanks: 351483 time(s)
Unknown


(IMG:https://metalarea.org/images/audiocovers/2021_Feb/acov_tid347703_thumb.jpg)

*Artist: Galdragon
*Album: Taexalon
*Year: 2021
*Genre: Black Metal
*Country: United Kingdom (IMG:https://metalarea.org/forum/style_images/flags/United%20Kingdom.png)
*Format: mp3@CBR320kbps
*Size: 116MB

Tracklist:
1. Celurca 13:44
2. Defiled Colony of Bastard Fornicators 09:31
3. Et Captivum 18:07
4. The Permanent Anesthetic 11:16
******************************
Total playing time: 52:38




Extended info
Krieg Martyriis Everything


Technical info
(IMG:https://metalarea.org/images/spectrogram/2021_Feb/83b14b8c055ab2bf5551412e50df09e9.png)
Input File: 02 Defiled Colony Of Bastard Fornicators.mp3
Channels : 2
Sample Rate : 44100
Precision : 16-bit
Duration : 00:09:31.54 = 25204826 samples = 42865.4 CDDA sectors
File Size : 23.9M
Bit Rate : 334k
Sample Encoding: MPEG audio (layer I, II or III)
Comments :
Title=Defiled Colony Of Bastard Fornicators
Artist=Galdragon
Album=Taexalon
Tracknumber=2/4
Year=2021-21-20
Genre=Metal
Discnumber=1/1



Register


Go to the top of the page
  Insert nick Quick quote
+Quote Post
 
Start new topic
Replies (1 - 1)
post Feb 23 2021, 18:20:28
Post #2

Три Литра
***
Group: Завсегдатай
Posts: 207
Releases: 0
From: минск сити
On Forums: 11 years 8 months
Thanks: 66 time(s)
Belarus


Все глаза сломал, пока мёртвого оленя на обложке разглядел.
Про музыку: скучная и невыразительная какая-то, не моё.
Go to the top of the page
  Insert nick Quick quote
+Quote Post

Reply to this topicStart new topic
1 User(s) are reading this topic (1 Guests and 0 Anonymous Users)
0 Members:

 



- Lo-Fi Version Support form
Copyrights and abuse reports form
Time is now: 5th March 2021 - 19:52:18