Welcome Guest ( Log In | Register )

> Releases Upload / Добавление релизов

Добавить релиз тут / Click here to add release
Рекомендованные обменники / Recommended file shares

 
Reply to this topicStart new topic
> Fidelis & Elegiac - Fidelis/Elegiac [split] (2018), Black Metal | Black Metal (D5)(D)
post Feb 22 2021, 19:14:50
Post #1

Правь статус, ####!616
**************
Group: Металариец
Posts: 5,875
Releases: 4382
From: 55°35’N 38°08’E
On Forums: 12 years 7 months
Thanks: 81508 time(s)
Unknown


(IMG:https://metalarea.org/images/audiocovers/2021_Feb/acov_tid347705_thumb.jpg)

*Artist: Fidelis & Elegiac
*Album: Fidelis/Elegiac [split]
*Year: 2018
*Genre: Black Metal | Black Metal
*Country: United States (IMG:https://metalarea.org/forum/style_images/flags/United%20States.png) | United States (IMG:https://metalarea.org/forum/style_images/flags/United%20States.png)
*Format: mp3@CBR320kbps
*Size: 36MB

Tracklist:
Fidelis:
1.I Am Seep / Blind Nobility 07:39
Elegiac:
2.New Dawn 08:16
******************************
Total playing time: 15:55



Technical info
(IMG:https://metalarea.org/images/spectrogram/2021_Feb/8b0296932e39963ed3ce24d76f532b8d.png)
Input File: 01 Fidelis - I Am Seer- Blind Nobility.mp3
Channels : 2
Sample Rate : 44100
Precision : 16-bit
Duration : 00:07:39.60 = 20268360 samples = 34470 CDDA sectors
File Size : 18.5M
Bit Rate : 322k
Sample Encoding: MPEG audio (layer I, II or III)
Comments :
Title=I Am Seer/ Blind Nobility
Artist=Fidelis
Album=Fidelis / Elegiac Split
Tracknumber=1
Year=2018
Genre=Black Metal



Register


Go to the top of the page
  Insert nick Quick quote
+Quote Post

Reply to this topicStart new topic
1 User(s) are reading this topic (1 Guests and 0 Anonymous Users)
0 Members:

 



- Lo-Fi Version Support form
Copyrights and abuse reports form
Time is now: 5th March 2021 - 01:28:48