Welcome Guest ( Log In | Register )

> Releases Upload / Добавление релизов

Добавить релиз тут / Click here to add release
Рекомендованные обменники / Recommended file shares

> Cave Of Swimmers - Aurora (2021), Doom Metal/Progressive/Hard Rock
post Feb 23 2021, 06:56:48
Post #1

Правь статус, ####!111
**************
Group: Металариец
Posts: 3,895
Releases: 3555
From: Одесса
On Forums: 12 years 10 months
Thanks: 38000 time(s)
Ukraine


(IMG:http://metalarea.org/images/audiocovers/2021_Feb/acov_tid347723_thumb.jpg)

*Artist: Cave Of Swimmers
*Album: Aurora
*Year: 2021
*Genre: Doom Metal/Progressive/Hard Rock
*Country: United States (IMG:http://metalarea.org/forum/style_images/flags/United%20States.png)
*Format: mp3@CBR320kbps
*Size: 77MB

Tracklist:
1. Intro - Through the Star Gate 01:19 instrumental
2. The Sun 05:19
3. Double Rainbow 03:32
4. My Human 05:48
5. Looking Glass 03:53
6. Dirt 05:53
7. C.S 06:35
******************************
Total playing time: 32:19



Extended info
Line - up:

Guillermo Gonzalez - Guitars, Keyboards, Vocals
Arturo Garcia - Drums, Percussion, Vocals



(IMG:https://f4.bcbits.com/img/0015931047_10.jpg)


Technical info
(IMG:http://metalarea.org/images/spectrogram/2021_Feb/4946bce6efffdc0a77b1c704cae4ecd0.png)
Input File: 02 - The Sun 2021.mp3
Channels : 2
Sample Rate : 44100
Precision : 16-bit
Duration : 00:05:13.62 = 13830642 samples = 23521.5 CDDA sectors
File Size : 12.5M
Bit Rate : 320k
Sample Encoding: MPEG audio (layer I, II or III)
Comments :
Title=The Sun 2021
Artist=Cave of Swimmers
Album=Aurora
Tracknumber=2
Year=2021
Genre=Doom Metal/Progressive/Hard Rock



Register


Go to the top of the page
  Insert nick Quick quote
+Quote Post
 
Start new topic
Replies (1 - 4)
post Feb 24 2021, 13:17:22
Post #2

####!111
**************
Group: Металариец
Posts: 4,354
Releases: 129
From: The Mountain Of DOOM
On Forums: 13 years 6 months
Thanks: 6068 time(s)
Russian Federation


Крутой вокал: есть
Крутые риффы: есть
Разнообразие: есть
Хиты: есть

Крутой альбом! (хотя концовочка вышла послабее)


Thanks:
Go to the top of the page
  Insert nick Quick quote
+Quote Post
post Feb 24 2021, 19:40:32
Post #3

Override the Overture
******
Group: Металариец
Posts: 699
Releases: 0
From: Moscow
On Forums: 13 years 3 months
Thanks: 156 time(s)
Russian Federation


ЦИТАТА(Un4given @ Feb 24 2021, 15:17:22) *
Крутой вокал: есть
Крутые риффы: есть
Разнообразие: есть
Хиты: есть
Doom Metal: нет


в остальном соглашусь во всём - альбом ломовеший просто, особенно вокал а-ля Танкян и припевы а-ля Рикки Мартин (IMG:style_emoticons/default/banana.gif) (IMG:style_emoticons/default/20.gif)
Go to the top of the page
  Insert nick Quick quote
+Quote Post
post Mar 2 2021, 15:48:17
Post #4

Мегадобряк
**************
Group: Металариец
Posts: 5,266
Releases: 1267
From: Харьков, Украина
On Forums: 14 years 6 months
Thanks: 9709 time(s)
Ukraine


Сижу такой, никого не трогаю. Думу думаю. Годы идут, моложе не становишься, а очень даже наоборот. И, видимо, это как-то связано с тем, что 99% всего новья от даже именитых грандов не вставляют совершенно. Всё какая-то преснота, песен хороших не найти (за очень редким исключением), все выдают "качество". Типа раньше сам был зеленее, вместе с травой, и всё хавал, всё нравилось, а щас типа зажрался. А потом, каким-то случайным образом, оказывается в плейлисте некий ноу-нейм (сабж), и ты с первой же песни, с пол-оборота заводишся, а на третьей песне сидишь как молотком по голове ошарашенный, с мурашками по всему телу и ох (IMG:style_emoticons/default/12.gif) уеваешь. Эээээ не, дело не возрасте и "зажратости", а действительно, кто-то просто разучивается песни писать, остывает.
Жаль, концовку не дожали до уровня первой половины, цены им бы не было.
My Human (IMG:style_emoticons/default/20.gif)


Thanks:
(1) Un4given,
Go to the top of the page
  Insert nick Quick quote
+Quote Post
post Mar 2 2021, 16:59:22
Post #5

Девять Литров
*********
Group: Металариец
Posts: 975
Releases: 0
From: China
On Forums: 13 years 3 months
Thanks: 730 time(s)
Bulgaria


Wow, what a fresh-sounding, classic metal masterpiece; great stuff! power, doom, progressive, heavy, thrash, speed... a most handsome melting pot of styles. And this vocalist... a stunning very passionate tenor. Venezuela has talent, that's for sure. A very pleasant surprise


Thanks:
(1) Oskulum,
Go to the top of the page
  Insert nick Quick quote
+Quote Post

Reply to this topicStart new topic
2 User(s) are reading this topic (2 Guests and 0 Anonymous Users)
0 Members:

 



- Lo-Fi Version Support form
Copyrights and abuse reports form
Time is now: 19th April 2021 - 11:31:18