Welcome Guest ( Log In | Register )

> Crimson Slaughter - From Dark Days [ep] (2021), Black/Thrash Metal/Punk
post Mar 29 2021, 22:39:19
Post #1

Правь статус, ####!111
**************
Group: Металариец
Posts: 28,587
Releases: 20922
From: Г.Харьков
On Forums: 9 years 8 months
Thanks: 427835 time(s)
Unknown


(IMG:https://metalarea.org/images/audiocovers/2021_Mar/acov_tid349065_thumb.jpg)

*Artist: Crimson Slaughter
*Album: From Dark Days [ep]
*Year: 2021
*Genre: Black/Thrash Metal/Punk
*Country: Russian Federation (IMG:https://metalarea.org/forum/style_images/flags/Russian%20Federation.png)
*Format: mp3@CBR320kbps
*Size: 54MB

Tracklist:
1. Intro 01:57 instrumental
2. The Reason for Staying Here 03:37
3. Misanthrope 03:39
4. If Everything Turns Out Right 03:58
5. As Many Time Was Short 05:00
6. Life in Lie 03:02
7. Outro 02:27 instrumental
******************************
Total playing time: 23:40



Technical info
(IMG:https://metalarea.org/images/spectrogram/2021_Mar/92b03876abf544b38e3bf0050d12562b.png)
Input File: Crimson Slaughter - From Dark Days - 05 As Many Time Was Short.mp3
Channels : 2
Sample Rate : 44100
Precision : 16-bit
Duration : 00:05:00.09 = 13233749 samples = 22506.4 CDDA sectors
File Size : 12.1M
Bit Rate : 323k
Sample Encoding: MPEG audio (layer I, II or III)
Comments :
Title=As Many Time Was Short
Artist=Crimson Slaughter
Album=From Dark Days
Tracknumber=5
Year=2021



Register


Go to the top of the page
  Insert nick Quick quote
+Quote Post
 
Start new topic
Replies (1 - 2)
post Apr 1 2021, 10:13:51
Post #2

0%Tolerance
***********
Group: Металариец
Posts: 1,645
Releases: 0
On Forums: 9 years 4 months
Thanks: 323 time(s)
Unknown


АтличнА вооощем-та например.
Go to the top of the page
  Insert nick Quick quote
+Quote Post
post Jul 4 2021, 23:46:59
Post #3

Правь статус, ####!111
**************
Group: Металариец
Posts: 2,795
Releases: 0
On Forums: 6 years 8 months
Thanks: 3686 time(s)
Russian Federation


Из сети, 320
Register


Thanks:
(1) artscald,
Go to the top of the page
  Insert nick Quick quote
+Quote Post

Reply to this topicStart new topic
2 User(s) are reading this topic (2 Guests and 0 Anonymous Users)
0 Members:

 



- Lo-Fi Version Support form
Copyrights and abuse reports form
Time is now: 24th January 2022 - 14:43:28