Welcome Guest ( Log In | Register )

> Releases Upload / Добавление релизов

Добавить релиз тут / Click here to add release
Рекомендованные обменники / Recommended file shares

> Concubia Nocte - Mohyly [ep] (2021), Pagan Black Metal (D5)
post Apr 1 2021, 18:17:01
Post #1

Правь статус, ####!616
**************
Group: Металариец
Posts: 6,058
Releases: 4557
From: 55°35’N 38°08’E
On Forums: 12 years 9 months
Thanks: 84989 time(s)
Unknown


(IMG:https://metalarea.org/images/audiocovers/2021_Apr/acov_tid349174_thumb.jpg)

*Artist: Concubia Nocte
*Album: Mohyly [ep]
*Year: 2021
*Genre: Pagan Black Metal
*Country: Slovakia (IMG:https://metalarea.org/forum/style_images/flags/Slovakia.png)
*Format: mp3@CBR320kbps
*Size: 39MB

Tracklist:
1.Hmla 03:37
2.Mohylový Ľud 03:30
3.Plesá 04:02
4.Úsvit 05:27
******************************
Total playing time: 16:36



Technical info
(IMG:https://metalarea.org/images/spectrogram/2021_Apr/5439c661f6687845f22478ab1a100f3c.png)
Input File: 02 Mohylový Ľud.mp3
Channels : 2
Sample Rate : 44100
Precision : 16-bit
Duration : 00:03:30.85 = 9298441 samples = 15813.7 CDDA sectors
File Size : 8.48M
Bit Rate : 322k
Sample Encoding: MPEG audio (layer I, II or III)
Comments :
Title=Mohylový Ľud
Artist=Concubia Nocte
Album=Mohyly (EP)
Tracknumber=2
Year=2021
Genre=Black Metal



Register


Go to the top of the page
  Insert nick Quick quote
+Quote Post
 
Start new topic
Replies (1 - 3)
post Apr 2 2021, 07:58:20
Post #2

0%Tolerance
*********
Group: Металариец
Posts: 917
Releases: 0
On Forums: 8 years 7 months
Thanks: 163 time(s)
Unknown


Название у группы знакомое, но предыдущие их работы не вспомню уже. А эта епиха вполне неплохая получилась.
Go to the top of the page
  Insert nick Quick quote
+Quote Post
post Apr 2 2021, 18:30:55
Post #3

Три Литра
***
Group: Завсегдатай
Posts: 216
Releases: 0
On Forums: 2 months 4 weeks
Thanks: 176 time(s)
Russian Federation


Простенько, но со вкусом. Словаки сейчас на ниве Языческого Блэка трудятся не покладая рук, и у них это получается


Thanks:
(1) Vitald,
Go to the top of the page
  Insert nick Quick quote
+Quote Post
post Apr 7 2021, 22:35:09
Post #4

Пять Литров
*****
Group: Металариец
Posts: 414
Releases: 0
From: Москва
On Forums: 14 years 5 months
Thanks: 97 time(s)
Russian Federation


Рядовой сырой блэк с неразборчивым вокалом.
Go to the top of the page
  Insert nick Quick quote
+Quote Post

Reply to this topicStart new topic
2 User(s) are reading this topic (2 Guests and 0 Anonymous Users)
0 Members:

 



- Lo-Fi Version Support form
Copyrights and abuse reports form
Time is now: 18th April 2021 - 21:23:37