Welcome Guest ( Log In | Register )

> А За Солнцем Луна... - Оригинал 2007 [demo] (2007), Black Metal
post Apr 4 2021, 11:07:23
Post #1

Правь статус, ####!111
**************
Group: Металариец
Posts: 5,450
Releases: 574
From: MoscoW
On Forums: 15 years 5 months
Thanks: 8796 time(s)
Russian Federation


(IMG:https://metalarea.org/images/audiocovers/2021_Apr/acov_tid349285_thumb.jpg)

*Artist: А За Солнцем Луна...
*Album: Оригинал 2007 [demo]
*Year: 2007
*Genre: Black Metal
*Country: Russian Federation (IMG:https://metalarea.org/forum/style_images/flags/Russian%20Federation.png)
*Format: mp3@CBR320kbps
*Size: 16MB

Tracklist:
01. Церемониальный Ужас 02:37
02. Бесчестие 02:28
03. Чистилище 01:52
04. Чистилище (Ver. 2) 02:09
******************************
Total playing time: 9:06

Extended info



Technical info
(IMG:https://metalarea.org/images/spectrogram/2021_Apr/992f29b0358fd72592a72387002713c1.png)
Input File: 01. Церемониальный Ужас.mp3
Channels : 2
Sample Rate : 44100
Precision : 16-bit
Duration : 00:02:38.00 = 6967668 samples = 11849.8 CDDA sectors
File Size : 6.40M
Bit Rate : 324k
Sample Encoding: MPEG audio (layer I, II or III)
Comments :
Title=Церемониальный Ужас
Artist=А за Солнцем Луна...
Album=Оригинал 2007
Tracknumber=1
Year=2007



Register


Go to the top of the page
  Insert nick Quick quote
+Quote Post
 
Start new topic
Replies (1 - 4)
post Apr 4 2021, 19:55:51
Post #2

Четыре Литра
****
Group: Металариец
Posts: 395
Releases: 0
From: Москва
On Forums: 13 years 8 months
Thanks: 81 time(s)
Russian Federation


Лживые нечистивцы, за луной солнце, даже затмение происходит из-за этого...
Go to the top of the page
  Insert nick Quick quote
+Quote Post
post Apr 5 2021, 08:10:08
Post #3

Четыре Литра
****
Group: Металариец
Posts: 314
Releases: 0
From: Калуга
On Forums: 4 years 3 months
Thanks: 103 time(s)
Russian Federation


ЦИТАТА(Gazzzooo @ Apr 4 2021, 19:55:51) *
Лживые нечистивцы, за луной солнце, даже затмение происходит из-за этого...


сжечь еретика!


Thanks:
(1) Gazzzooo,
Go to the top of the page
  Insert nick Quick quote
+Quote Post
post Apr 5 2021, 14:27:06
Post #4

Dark Ambient Shoujo
**********
Group: Металариец
Posts: 1,433
Releases: 4
On Forums: 13 years 4 months
Thanks: 934 time(s)
Russian Federation


ЦИТАТА(Gazzzooo @ 4th April 2021 - 21:55:51) *
Лживые нечистивцы, за луной солнце, даже затмение происходит из-за этого...

Может, у тебя еще и Земля круглая?
Go to the top of the page
  Insert nick Quick quote
+Quote Post
post Apr 19 2021, 21:09:19
Post #5

Четыре Литра
****
Group: Металариец
Posts: 395
Releases: 0
From: Москва
On Forums: 13 years 8 months
Thanks: 81 time(s)
Russian Federation


ЦИТАТА(Dreamtale @ Apr 5 2021, 16:27:06) *
Может, у тебя еще и Земля круглая?

Округлая (IMG:style_emoticons/default/hmm.gif)
Go to the top of the page
  Insert nick Quick quote
+Quote Post

Reply to this topicStart new topic
1 User(s) are reading this topic (1 Guests and 0 Anonymous Users)
0 Members:

 



- Lo-Fi Version Support form
Copyrights and abuse reports form
Time is now: 18th May 2022 - 15:12:36