Welcome Guest ( Log In | Register )

> Releases Upload / Добавление релизов

Добавить релиз тут / Click here to add release
Рекомендованные обменники / Recommended file shares

 
Reply to this topicStart new topic
> Radio Muerte - Radio Muerte (2021), Thrash/Death Metal/Hardcore Punk
post Apr 5 2021, 17:18:57
Post #1

Правь статус, ####!111
**************
Group: Металариец
Posts: 3,893
Releases: 3549
From: Одесса
On Forums: 12 years 10 months
Thanks: 37967 time(s)
Ukraine


(IMG:http://metalarea.org/images/audiocovers/2021_Apr/acov_tid349315_thumb.jpg)

*Artist: Radio Muerte
*Album: Radio Muerte
*Year: 2021
*Genre: Thrash/Death Metal/Hardcore Punk
*Country: Puerto Rico (IMG:http://metalarea.org/forum/style_images/flags/Puerto%20Rico.png)
*Format: mp3@CBR320kbps
*Size: 48MB

Tracklist:
1. A Thousand Demons 01:51
2. How Can I Wake? 01:36
3. This Is the End 01:45
4. Brick by Brick 03:12
5. Edge of Desire 02:02
6. Breath of Lies 01:19
7. How Can I Recover? 02:46
8. Muerto en mi Mente 02:20
9. Beneath the Skin 02:54
******************************
Total playing time: 19:45



Technical info
(IMG:http://metalarea.org/images/spectrogram/2021_Apr/81d7c75dec3275fc36ea201b92cb38a4.png)
Input File: 05. Edge of Desire.mp3
Channels : 2
Sample Rate : 44100
Precision : 16-bit
Duration : 00:02:02.50 = 5402162 samples = 9187.35 CDDA sectors
File Size : 4.90M
Bit Rate : 320k
Sample Encoding: MPEG audio (layer I, II or III)
Comments :
Title=Edge of Desire
Artist=Radio Muerte
Album=Radio Muerte
Tracknumber=5
Year=2021
Genre=Thrash/Death Metal/Hardcore Punk



Register


Go to the top of the page
  Insert nick Quick quote
+Quote Post

Reply to this topicStart new topic
1 User(s) are reading this topic (1 Guests and 0 Anonymous Users)
0 Members:

 



- Lo-Fi Version Support form
Copyrights and abuse reports form
Time is now: 18th April 2021 - 12:19:01