Welcome Guest ( Log In | Register )

> Releases Upload / Добавление релизов

Добавить релиз тут / Click here to add release
Рекомендованные обменники / Recommended file shares

 
Reply to this topicStart new topic
> Plaguewielder - Covenant Death (2021), Blackened Sludge (D5)
post Apr 5 2021, 18:35:03
Post #1

Правь статус, ####!111
**************
Group: Металариец
Posts: 25,778
Releases: 18452
From: Г.Харьков
On Forums: 8 years 11 months
Thanks: 364451 time(s)
Unknown


(IMG:https://metalarea.org/images/audiocovers/2021_Apr/acov_tid349317_thumb.jpg)

*Artist: Plaguewielder
*Album: Covenant Death
*Year: 2021
*Genre: Blackened Sludge
*Country: United States (IMG:https://metalarea.org/forum/style_images/flags/United%20States.png)
*Format: mp3@CBR320kbps
*Size: 82MB

Tracklist:
1. To Dance with Wolves 06:31
2. At Night They Roam 05:44
3. A Death That Knows No End 04:14
4. One With the Shadows 04:29
5. Covenant Death 02:06
6. CRGP 03:08
7. Black Mysticism 05:18
8. Forever We Shall Be 05:34
******************************
Total playing time: 37:04





Extended info
FLAC-Rip
Tim Roberts Drums
See also: Baal, Disobey
Bryce Seditz Guitars, Vocals
See also: Horse Drawn, ex-Nova Prospect, Atata, Exigency, Fucked!, ex-Karen Page
Poof Bass (2017-present)
See also: Disobey
Daniel Kuntz Bass (2019-present)


Technical info
(IMG:https://metalarea.org/images/spectrogram/2021_Apr/e880079a6ae0b5c0263398ce0e897900.png)
Input File: 07 - Black Mysticism.mp3
Channels : 2
Sample Rate : 44100
Precision : 16-bit
Duration : 00:05:18.00 = 14023800 samples = 23850 CDDA sectors
File Size : 12.7M
Bit Rate : 320k
Sample Encoding: MPEG audio (layer I, II or III)
Comments :
Title=Black Mysticism
Artist=Plaguewielder
Album=Covenant Death
Tracknumber=7
Year=2021
Genre=Metal



Register


Go to the top of the page
  Insert nick Quick quote
+Quote Post

Reply to this topicStart new topic
2 User(s) are reading this topic (2 Guests and 0 Anonymous Users)
0 Members:

 



- Lo-Fi Version Support form
Copyrights and abuse reports form
Time is now: 18th April 2021 - 13:34:50