Welcome Guest ( Log In | Register )

> Releases Upload / Добавление релизов

Добавить релиз тут / Click here to add release
Рекомендованные обменники / Recommended file shares

> Tides Of Kharon - Titanomachy [ep] (2021), Melodic Death Metal
post Apr 5 2021, 19:23:33
Post #1

Правь статус, ####!111
**************
Group: Металариец
Posts: 25,776
Releases: 18452
From: Г.Харьков
On Forums: 8 years 11 months
Thanks: 364431 time(s)
Unknown


(IMG:https://metalarea.org/images/audiocovers/2021_Apr/acov_tid349318_thumb.jpg)

*Artist: Tides Of Kharon
*Album: Titanomachy [ep]
*Year: 2021
*Genre: Melodic Death Metal
*Country: Canada (IMG:https://metalarea.org/forum/style_images/flags/Canada.png)
*Format: mp3@CBR320kbps
*Size: 59MB

Tracklist:
1. Atlas Endures 05:12
2. Titanomachy 04:51
3. Sentinels of Stone 06:24
4. Kronos Descends 04:30
5. From the Mountain 04:13
******************************
Total playing time: 25:10




Extended info
Cam Rehman Bass, Vocals (backing)
Gord Alexander Drums
See also: Tessitura, ex-Tales of the Tomb
Justin Rehman Guitars
Ryan Rehman Guitars
Garrett Nelson Vocals


Technical info
(IMG:https://metalarea.org/images/spectrogram/2021_Apr/466ec13ef4f4fecabe3d1d875fecb856.png)
Input File: 03. Sentinels of Stone.mp3
Channels : 2
Sample Rate : 44100
Precision : 16-bit
Duration : 00:06:24.31 = 16948115 samples = 28823.3 CDDA sectors
File Size : 15.5M
Bit Rate : 323k
Sample Encoding: MPEG audio (layer I, II or III)
Comments :
Title=Sentinels of Stone
Artist=Tides of Kharon
Album=Titanomachy
Tracknumber=3
Year=2021
Discnumber=1/1



Register


Go to the top of the page
  Insert nick Quick quote
+Quote Post
 
Start new topic
Replies (1 - 1)
post Apr 7 2021, 19:06:29
Post #2

Old School Metal
**************
Group: Металариец
Posts: 3,646
Releases: 0
From: г. Минск
On Forums: 12 years 1 month
Thanks: 8390 time(s)
Belarus



Lossless: FLAC (tracks)
Register


Thanks:
Go to the top of the page
  Insert nick Quick quote
+Quote Post

Reply to this topicStart new topic
2 User(s) are reading this topic (2 Guests and 0 Anonymous Users)
0 Members:

 



- Lo-Fi Version Support form
Copyrights and abuse reports form
Time is now: 18th April 2021 - 12:40:54