Welcome Guest ( Log In | Register )

> Releases Upload / Добавление релизов

Добавить релиз тут / Click here to add release
Рекомендованные обменники / Recommended file shares

> Avaland - Theater Of Sorcery (2021), Symphonic Power/Melodic Heavy Metal
post Apr 5 2021, 19:58:45
Post #1

Мегаманьяк
***********
Group: Металариец
Posts: 1,739
Releases: 289
On Forums: 12 years 5 months
Thanks: 6489 time(s)
Russian Federation


(IMG:http://metalarea.org/images/audiocovers/2021_Apr/acov_tid349319_thumb.jpg)

*Artist: Avaland
*Album: Theater Of Sorcery
*Year: 2021
*Genre: Symphonic Power/Melodic Heavy Metal
*Country: France (IMG:http://metalarea.org/forum/style_images/flags/France.png)
*Format: mp3@CBR320kbps
*Size: 145MB

Tracklist:
01. Theater of Sorcery 05:05
02. Gypsum Flower 08:28
03. Let the Wind Blow 06:46
04. Storyteller 04:22
05. Escape to Paradise 05:53
06. Holy Kingdom of Fools 04:33
07. Never Let Me Walk Alone 06:23
08. Deja-Vu 04:55
09. I'll Be Ready for Your Love 06:05
10. War of Minds 04:40
11. Rise from the Ashes 05:40
******************************
Total playing time: 1:02:50


Preview 2
Preview 3
Preview 4
Preview 5

Extended info


Lineup:
Lead Vocal - Adrien G. Gzagg
Guitars – Christophe Feutrier
Guitars – Lucas Martinez
Bass – Camille Souffron
Drums – Leo Mouchonnay

Guest Vocal – Emmanuelson (Rising Steel / Ellipsis …)
Guitar Solo composed and recorded by – Ricky Marx (ex-Pretty Maids / Now Or Never)

Additionnal Choirs : Jeff Kanji, Yves Campion (Nightmare), Cara (Eltharia) & Avaland

Produced and Composed by Adrien G. Gzagg
Arranged by Avaland
Recorded by Steven Rozier at KNT studio, Echirolles, FRANCE
Mixed by Caleb Bingham at Nightmare Sound Studio
Master by Kevin Codfert

Released by Rockshots Records


***FLAC-Rip***


Technical info
(IMG:http://metalarea.org/images/spectrogram/2021_Apr/877f410dabc04f266b88f9e1cc140103.png)
Input File: 01-Theater Of Sorcery.mp3
Channels : 2
Sample Rate : 44100
Precision : 16-bit
Duration : 00:05:05.55 = 13474667 samples = 22916.1 CDDA sectors
File Size : 12.2M
Bit Rate : 320k
Sample Encoding: MPEG audio (layer I, II or III)
Comments :
Title=Theater Of Sorcery
Artist=Avaland
Album=Theater Of Sorcery
Tracknumber=1
Year=2021
Genre=Symphonic Power/Melodic Heavy Metal



Register


Go to the top of the page
  Insert nick Quick quote
+Quote Post
 
Start new topic
Replies (1 - 3)
post Apr 7 2021, 14:53:24
Post #2

Мегаманьяк
***********
Group: Металариец
Posts: 1,739
Releases: 289
On Forums: 12 years 5 months
Thanks: 6489 time(s)
Russian Federation


FLAC tracks
Register


Thanks:
(1) Olethros,
Go to the top of the page
  Insert nick Quick quote
+Quote Post
post Apr 7 2021, 22:56:27
Post #3

Это просто место… где все подошло к концу.
**************
Group: Металариец
Posts: 6,224
Releases: 0
From: Страны Мамонтов
On Forums: 14 years 1 month
Thanks: 2433 time(s)
Antarctica


Очень напомнили Magnum. Приятная вещь
Go to the top of the page
  Insert nick Quick quote
+Quote Post
post Apr 8 2021, 05:40:44
Post #4

Ъ
**************
Group: Металариец
Posts: 10,566
Releases: 9
On Forums: 12 years 3 months
Thanks: 2161 time(s)
Sweden


Третьесорт, звучит очень дежурно, вокал не тащит.
Go to the top of the page
  Insert nick Quick quote
+Quote Post

Reply to this topicStart new topic
2 User(s) are reading this topic (2 Guests and 0 Anonymous Users)
0 Members:

 



- Lo-Fi Version Support form
Copyrights and abuse reports form
Time is now: 19th April 2021 - 17:44:38