Welcome Guest ( Log In | Register )

> Releases Upload / Добавление релизов

Добавить релиз тут / Click here to add release
Рекомендованные обменники / Recommended file shares

 
Reply to this topicStart new topic
> Extermination - Second Coming, Second Crucifixion [ep] (2015), Blackened Thrash/Death Metal (D4)
post Apr 5 2021, 20:02:48
Post #1

Правь статус, ####!111
**************
Group: Металариец
Posts: 25,775
Releases: 18452
From: Г.Харьков
On Forums: 8 years 11 months
Thanks: 364406 time(s)
Unknown


(IMG:https://metalarea.org/images/audiocovers/2021_Apr/acov_tid349320_thumb.jpg)

*Artist: Extermination
*Album: Second Coming, Second Crucifixion [ep]
*Year: 2015
*Genre: Blackened Thrash/Death Metal
*Country: Sweden (IMG:https://metalarea.org/forum/style_images/flags/Sweden.png)
*Format: mp3@CBR320kbps
*Size: 24MB

Tracklist:
1. Forever Antichrist 02:54
2. Sadistic Torment 02:26
3. Priest Torn Apart 02:00
4. Suicide Lullaby 02:39
******************************
Total playing time: 9:59


(IMG:https://metalarea.org/images/youtube.png)

Technical info
(IMG:https://metalarea.org/images/spectrogram/2021_Apr/ffcbd3948faf6f06ee1807581f956684.png)
Input File: 04 - Suicide lullaby.mp3
Channels : 2
Sample Rate : 44100
Precision : 16-bit
Duration : 00:02:39.00 = 7011900 samples = 11925 CDDA sectors
File Size : 6.52M
Bit Rate : 328k
Sample Encoding: MPEG audio (layer I, II or III)
Comments :
Title=Suicide lullaby
Artist=Extermination
Album=Second coming, second crucifixion...
Tracknumber=4
Year=2015-04-03
Discnumber=1



Register


Go to the top of the page
  Insert nick Quick quote
+Quote Post

Reply to this topicStart new topic
2 User(s) are reading this topic (2 Guests and 0 Anonymous Users)
0 Members:

 



- Lo-Fi Version Support form
Copyrights and abuse reports form
Time is now: 18th April 2021 - 12:06:18