Welcome Guest ( Log In | Register )

> Releases Upload / Добавление релизов

Добавить релиз тут / Click here to add release
Рекомендованные обменники / Recommended file shares

> North Profaned - Vomited And Dead [ep] (2021), Old School Death Metal
post Apr 5 2021, 21:06:57
Post #1

Правь статус, ####!111
**************
Group: Металариец
Posts: 25,775
Releases: 18452
From: Г.Харьков
On Forums: 8 years 11 months
Thanks: 364409 time(s)
Unknown


(IMG:https://metalarea.org/images/audiocovers/2021_Apr/acov_tid349321_thumb.jpg)

*Artist: North Profaned
*Album: Vomited And Dead [ep]
*Year: 2021
*Genre: Old School Death Metal
*Country: Peru (IMG:https://metalarea.org/forum/style_images/flags/Peru.png)
*Format: mp3@CBR320kbps
*Size: 43MB

Tracklist:
1. The Exorcism Process 05:00
2. Pútrida descomposición 04:49
3. Almas en pena 04:39
4. Cementerio zombie 03:50
******************************
Total playing time: 18:18




Extended info
Billy Gleen Drums
See also: Opresión, ex-Staccato
Erick Maury Parqui Guitars (lead), Vocals (2017-present)
See also: ex-Blasphemer Priest
Cristopher Guitars, Keyboards (2019-present)


Technical info
(IMG:https://metalarea.org/images/spectrogram/2021_Apr/2c864c13dbb4475cd450f8c0a744d52a.png)
Input File: 02. Pútrida Descomposición.mp3
Channels : 2
Sample Rate : 44100
Precision : 16-bit
Duration : 00:04:49.00 = 12744900 samples = 21675 CDDA sectors
File Size : 11.9M
Bit Rate : 330k
Sample Encoding: MPEG audio (layer I, II or III)
Comments :
Title=Pútrida Descomposición
Artist=North Profaned
Album=Vomited And Dead (EP)
Tracknumber=2
Year=2021
Genre=Death Metal



Register


Go to the top of the page
  Insert nick Quick quote
+Quote Post
 
Start new topic
Replies (1 - 1)
post Apr 7 2021, 08:17:50
Post #2

Девять Литров
*********
Group: Металариец
Posts: 931
Releases: 1
From: APATIN, SERBIA, АПАТИН, СЕРБИЯ
On Forums: 13 years 5 months
Thanks: 1947 time(s)



Flac

Register


Go to the top of the page
  Insert nick Quick quote
+Quote Post

Reply to this topicStart new topic
1 User(s) are reading this topic (1 Guests and 0 Anonymous Users)
0 Members:

 



- Lo-Fi Version Support form
Copyrights and abuse reports form
Time is now: 18th April 2021 - 12:14:36