Welcome Guest ( Log In | Register )

> Releases Upload / Добавление релизов

Добавить релиз тут / Click here to add release
Рекомендованные обменники / Recommended file shares

 
Reply to this topicStart new topic
> Morbid Sphere - Demo II [demo] (2021), Black/Death Metal
post Apr 6 2021, 05:32:37
Post #1

Правь статус, ####!616
**************
Group: Металариец
Posts: 6,054
Releases: 4550
From: 55°35’N 38°08’E
On Forums: 12 years 9 months
Thanks: 84963 time(s)
Unknown


(IMG:https://metalarea.org/images/audiocovers/2021_Apr/acov_tid349323_thumb.jpg)

*Artist: Morbid Sphere
*Album: Demo II [demo]
*Year: 2021
*Genre: Black/Death Metal
*Country: United States (IMG:https://metalarea.org/forum/style_images/flags/United%20States.png)
*Format: mp3@CBR320kbps
*Size: 43MB

Tracklist:
1.Silver on Silver 08:11
2.Black Liquid 08:54
******************************
Total playing time: 17:05



Technical info
(IMG:https://metalarea.org/images/spectrogram/2021_Apr/0d5284329fc5427dbb019e06762d7415.png)
Input File: 01 Silver on Silver.mp3
Channels : 2
Sample Rate : 44100
Precision : 16-bit
Duration : 00:08:12.02 = 21698082 samples = 36901.5 CDDA sectors
File Size : 19.9M
Bit Rate : 324k
Sample Encoding: MPEG audio (layer I, II or III)
Comments :
Title=Silver on Silver
Artist=Morbid Sphere
Album=Demo II
Tracknumber=1
Year=2021
Genre=Black/Death Metal



Register


Go to the top of the page
  Insert nick Quick quote
+Quote Post

Reply to this topicStart new topic
2 User(s) are reading this topic (2 Guests and 0 Anonymous Users)
0 Members:

 



- Lo-Fi Version Support form
Copyrights and abuse reports form
Time is now: 18th April 2021 - 13:32:13