Welcome Guest ( Log In | Register )

> Releases Upload / Добавление релизов

Добавить релиз тут / Click here to add release
Рекомендованные обменники / Recommended file shares

> Prehistoric War Cult - Cold Wind Howls Over The Burial Site [ep] (2021), Black/Death Metal
post Apr 6 2021, 07:38:09
Post #1

Правь статус, ####!616
**************
Group: Металариец
Posts: 6,054
Releases: 4550
From: 55°35’N 38°08’E
On Forums: 12 years 9 months
Thanks: 84962 time(s)
Unknown


(IMG:https://metalarea.org/images/audiocovers/2021_Apr/acov_tid349326_thumb.jpg)

*Artist: Prehistoric War Cult
*Album: Cold Wind Howls Over The Burial Site [ep]
*Year: 2021
*Genre: Black/Death Metal
*Country: Germany (IMG:https://metalarea.org/forum/style_images/flags/Germany.png)
*Format: mp3@CBR320kbps
*Size: 52MB

Tracklist:
1.Marks Of Death In Abandoned Caves 00:53
2.Blood Sacrifice 02:57
3.Procession Into The Poison Jungle 02:42
4.Towards The Blazing Monument (Of Creation) 01:44
5.Raiding The Enemy Village (As Foretold By The Sacred Bones) 03:12
6.Cold Wind Howls Over The Burial Site 03:56
7.Blood Monk (Goatlord cover) 05:49
******************************
Total playing time: 21:13



Technical info
(IMG:https://metalarea.org/images/spectrogram/2021_Apr/6efd97a24a7dc668a658e0d6f96ee484.png)
Input File: 02 Blood Sacrifice.mp3
Channels : 2
Sample Rate : 44100
Precision : 16-bit
Duration : 00:02:57.57 = 7830705 samples = 13317.5 CDDA sectors
File Size : 7.28M
Bit Rate : 328k
Sample Encoding: MPEG audio (layer I, II or III)
Comments :
Title=Blood Sacrifice
Artist=Prehistoric War Cult
Album=Cold Wind Howls Over The Burial Site
Tracknumber=2
Year=2021
Genre=Black/Death Metal



Register


Go to the top of the page
  Insert nick Quick quote
+Quote Post
 
Start new topic
Replies (1 - 1)
post Apr 7 2021, 08:15:47
Post #2

Девять Литров
*********
Group: Металариец
Posts: 931
Releases: 1
From: APATIN, SERBIA, АПАТИН, СЕРБИЯ
On Forums: 13 years 5 months
Thanks: 1947 time(s)



Flac

Register


Thanks:
Go to the top of the page
  Insert nick Quick quote
+Quote Post

Reply to this topicStart new topic
2 User(s) are reading this topic (2 Guests and 0 Anonymous Users)
0 Members:

 



- Lo-Fi Version Support form
Copyrights and abuse reports form
Time is now: 18th April 2021 - 12:52:31